<?xml version="1.0" standalone="no"?> <!DOCTYPE svg PUBLIC "-//W3C//DTD SVG 1.0//EN" "http://www.w3.org/TR/2001/REC-SVG-20010904/DTD/svg10.dtd" > <svg xmlns="http://www.w3.org/2000/svg" width="100%" height="100%">
<defs >
<font id="HelveticaNeue-BoldItalic" horiz-adv-x="479" ><font-face
    font-family="Helvetica Neue"
    units-per-em="1000"
    panose-1="0 0 0 0 0 0 0 0 0 0"
    ascent="975"
    descent="-218"
    alphabetic="0" />
<missing-glyph horiz-adv-x="278" />
<glyph unicode=" " glyph-name="space" horiz-adv-x="278" />
<glyph unicode="!" glyph-name="exclam" horiz-adv-x="296" d="M-4 0L29 154H187L154 0H-4ZM301 714L259 520L154 214H84L109 520L150 714H301Z" />
<glyph unicode="&quot;" glyph-name="quotedbl" horiz-adv-x="481" d="M313 393V714H420V393H313ZM127 393V714H234V393H127Z" />
<glyph unicode="#" glyph-name="numbersign" horiz-adv-x="556" d="M81 0L109 198H26L36 288H121L139 412H56L66 502H151L179 700H276L248 502H345L372 700H469L442 502H526L516 412H429L412 288H496L486 198H399L372 0H275L302 198H206L178 0H81ZM332 412H236L218
288H315L332 412Z" />
<glyph unicode="$" glyph-name="dollar" horiz-adv-x="556" d="M312 296L274 100Q320 100 355 126T391 204Q391 265 312 296ZM291 444L323 614H316Q276 614 243 591T210 526Q210 469 291 444ZM186 -104L204 -14Q2 9 6 240H143Q140 120 226 105L266 311L255 315Q209
331 183 343T128 377T86 433T73 515Q73 621 151 676T343 731H346L362 810H410L393 724Q475 707 522 652T563 506H426Q430 580 369 605L336 428Q373 417 396 408T447 383T490 347T517 296T528 223Q528 161 504 114T440 39T352 -3T252 -17L235 -104H186Z" />
<glyph unicode="%" glyph-name="percent" horiz-adv-x="963" d="M73 482Q73 577 123 645T266 714Q342 714 383 676T424 562Q424 465 369 395T220 324Q149 324 111 367T73 482ZM175 464Q175 399 227 399Q260 399 283 434T314 509T322 583Q322 605 309 622T274 639Q238
639 214 607T183 537T175 464ZM175 -22L713 722H798L261 -22H175ZM644 126Q644 61 696 61Q729 61 752 96T783 171T791 245Q791 267 778 284T743 301Q707 301 683 269T652 199T644 126ZM542 144Q542 239 592 307T735 376Q811 376 852 338T893 224Q893 127 838 57T689
-14Q618 -14 580 29T542 144Z" />
<glyph unicode="&amp;" glyph-name="ampersand" horiz-adv-x="685" d="M365 156L267 315Q262 312 247 303T226 291T207 279T189 265T175 249T163 230T156 209T153 183Q153 148 181 126T247 103Q298 103 365 156ZM459 0L427 56Q342 -14 235 -14Q145 -14 81 39T16
183Q16 332 209 410Q161 489 161 536Q161 623 215 672T358 722Q437 722 491 680T545 560Q545 514 518 475T460 414T381 366L458 242Q495 280 510 343H637Q615 223 524 140L615 0H459ZM288 554Q288 516 326 454Q428 504 428 559Q428 589 410 608T365 627Q333 627
311 608T288 554Z" />
<glyph unicode="&apos;" glyph-name="quotesingle" horiz-adv-x="278" d="M110 393V714H217V393H110Z" />
<glyph unicode="(" glyph-name="parenleft" horiz-adv-x="296" d="M262 731H387Q260 564 209 414T158 81Q158 -19 196 -182H88Q62 -122 44 -25T26 138Q26 312 83 444T262 731Z" />
<glyph unicode=")" glyph-name="parenright" horiz-adv-x="296" d="M13 -182H-112Q15 -15 66 135T117 468Q117 568 79 731H187Q213 671 231 574T249 411Q249 237 192 105T13 -182Z" />
<glyph unicode="*" glyph-name="asterisk" horiz-adv-x="407" d="M313 710L289 582L410 605L424 526L304 508L361 403L289 364L234 473L148 376L90 432L179 524L71 576L105 649L214 594L231 714L313 710Z" />
<glyph unicode="+" glyph-name="plus" horiz-adv-x="600" d="M48 199V306H247V505H354V306H553V199H354V0H247V199H48Z" />
<glyph unicode="," glyph-name="comma" horiz-adv-x="278" d="M-13 0L19 154H177Q171 129 162 82T146 7T125 -57T90 -114T35 -149T-48 -167L-33 -96Q9 -89 28 -67T56 0H-13Z" />
<glyph unicode="-" glyph-name="hyphen" horiz-adv-x="407" d="M27 212L53 334H354L328 212H27Z" />
<glyph unicode="." glyph-name="period" horiz-adv-x="278" d="M-13 0L20 154H178L145 0H-13Z" />
<glyph unicode="/" glyph-name="slash" horiz-adv-x="389" d="M-2 -17L277 731H391L112 -17H-2Z" />
<glyph unicode="0" glyph-name="zero" horiz-adv-x="556" d="M-4 255Q-4 332 17 410T77 558T181 670T327 714Q442 714 501 643T561 449Q561 386 548 323T508 198T441 90T344 15T218 -14Q105 -14 51 62T-4 255ZM138 226Q138 103 236 103Q277 103 310 132T362 205T395
300T414 396T419 471Q419 527 394 562T317 597Q268 597 231 554T174 447T147 327T138 226Z" />
<glyph unicode="1" glyph-name="one" horiz-adv-x="556" d="M471 700L323 0H172L268 454H97L120 561Q207 565 263 594T355 700H471Z" />
<glyph unicode="2" glyph-name="two" horiz-adv-x="556" d="M179 448H44Q54 574 129 644T325 714Q427 714 492 661T558 503Q558 445 528 397T449 313T348 248T243 186T160 122H505L477 0H-42Q-39 42 -28 78T7 145T51 197T110 243T171 281T240 319Q249 324 276
338T316 361T352 385T386 416T407 451T416 494Q416 544 386 568T308 592Q252 592 217 550T179 448Z" />
<glyph unicode="3" glyph-name="three" horiz-adv-x="556" d="M216 317L235 417H278Q332 416 372 438T412 510Q412 553 385 575T316 597Q258 597 227 568T182 477H47Q63 591 134 652T318 714Q414 714 481 670T549 531Q549 470 512 426T417 370V368Q515 338 515
225Q515 146 475 91T371 11T227 -14Q100 -14 37 51T-18 240H117Q110 177 140 140T231 103Q290 103 328 137T366 230Q366 274 339 295T267 317H216Z" />
<glyph unicode="4" glyph-name="four" horiz-adv-x="556" d="M106 279H314L371 548H369L106 279ZM538 700L449 279H542L517 162H424L389 0H254L289 162H-36L-10 291L400 700H538Z" />
<glyph unicode="5" glyph-name="five" horiz-adv-x="556" d="M556 700L531 583H233L187 434L189 432Q215 454 245 465T326 476Q407 476 464 419T521 267Q521 139 439 63T229 -14Q115 -14 51 40T-17 204H120Q121 154 153 129T239 103Q298 103 338 144T379 250Q379
308 348 338T260 369Q188 369 148 310H20L142 700H556Z" />
<glyph unicode="6" glyph-name="six" horiz-adv-x="556" d="M150 221Q150 170 180 137T257 103Q317 103 353 143T389 245Q389 302 359 332T278 363Q221 363 186 322T150 221ZM577 519H440Q439 559 415 583T351 607T281 589T229 535T195 470T168 398L170 396Q221
470 324 470Q418 470 474 412T531 256Q531 143 453 65T261 -14Q134 -14 74 63T13 271Q13 461 106 587T356 714Q453 714 513 666T577 519Z" />
<glyph unicode="7" glyph-name="seven" horiz-adv-x="556" d="M591 700L565 578Q449 481 355 319T219 0H68Q105 145 202 306T410 568H66L94 700H591Z" />
<glyph unicode="8" glyph-name="eight" horiz-adv-x="556" d="M122 201Q122 153 158 123T245 93Q308 93 345 125T382 211Q382 264 345 293T258 323Q199 323 161 291T122 201ZM68 509Q68 603 143 658T332 714Q430 714 490 660T550 526Q550 474 512 428T415 370V368Q459
359 491 312T524 211Q524 109 440 48T240 -14Q127 -14 54 44T-20 192Q-20 336 155 377V379Q117 397 93 432T68 509ZM195 555T195 509T230 441T309 418Q355 418 389 444T423 512Q423 559 391 583T312 607Q257 607 226 581Z" />
<glyph unicode="9" glyph-name="nine" horiz-adv-x="556" d="M415 479Q415 530 385 563T308 597Q248 597 212 557T176 455Q176 398 206 368T287 337Q344 337 379 378T415 479ZM-12 181H125Q126 141 150 117T214 93T284 111T336 165T370 230T397 302L395 304Q344
230 241 230Q147 230 91 288T34 444Q34 557 112 635T304 714Q431 714 491 637T552 429Q552 239 459 113T209 -14Q112 -14 52 34T-12 181Z" />
<glyph unicode=":" glyph-name="colon" horiz-adv-x="278" d="M-13 0L20 154H178L145 0H-13ZM252 508L219 354H61L94 508H252Z" />
<glyph unicode=";" glyph-name="semicolon" horiz-adv-x="278" d="M-13 0L19 154H177Q171 129 162 82T146 7T125 -57T90 -114T35 -149T-48 -167L-33 -96Q9 -89 28 -67T56 0H-13ZM61 354L94 508H252L219 354H61Z" />
<glyph unicode="&lt;" glyph-name="less" horiz-adv-x="600" d="M554 514V399L187 253L554 107V-8L46 194V312L554 514Z" />
<glyph unicode="=" glyph-name="equal" horiz-adv-x="600" d="M553 413V306H48V413H553ZM553 199V92H48V199H553Z" />
<glyph unicode="&gt;" glyph-name="greater" horiz-adv-x="600" d="M46 -8V107L413 253L46 399V514L554 312V194L46 -8Z" />
<glyph unicode="?" glyph-name="question" horiz-adv-x="574" d="M216 491H74Q80 606 157 668T352 731Q445 731 507 684T570 546Q570 481 533 437T431 356Q377 327 350 299T317 220H185Q198 311 233 352T350 436Q421 476 421 536Q421 574 397 594T334 614Q284
614 253 579T216 491ZM123 0L156 154H314L281 0H123Z" />
<glyph unicode="@" glyph-name="at" horiz-adv-x="800" d="M291 319Q291 279 312 255T369 230Q420 230 456 278T492 381Q492 417 470 441T415 466Q364 466 328 419T291 319ZM622 545L559 287Q539 221 568 221Q611 221 647 274T684 405Q684 520 608 585T415 651Q288
651 210 568T132 355Q132 225 214 144T427 63Q560 63 642 145H726Q675 68 595 26T421 -17Q260 -17 148 90T36 357Q36 514 147 622T416 731Q558 731 661 646T764 426Q764 367 746 317T700 235T639 179T578 146T529 136Q498 136 478 152T456 193H454Q419 135 346
135Q282 135 236 185T189 306Q189 406 250 483T407 561Q443 561 475 544T524 491L540 545H622Z" />
<glyph unicode="A" glyph-name="A" horiz-adv-x="685" d="M395 560L241 276H432L397 560H395ZM-77 0L345 714H506L625 0H469L446 159H179L89 0H-77Z" />
<glyph unicode="B" glyph-name="B" horiz-adv-x="722" d="M215 318L173 122H370Q425 122 459 152T493 237Q493 264 483 281T452 305T413 315T369 318H215ZM-4 0L146 714H446Q563 714 620 679T678 547Q678 484 642 436T544 381V379Q594 366 622 327T650 234Q650
123 571 62T377 0H-4ZM272 592L237 425H415Q460 425 490 449T521 519Q521 592 438 592H272Z" />
<glyph unicode="C" glyph-name="C" horiz-adv-x="741" d="M713 466H556Q556 530 521 564T428 599Q352 599 297 552T218 438T194 299Q194 219 234 167T356 115Q419 115 466 157T524 257H681Q634 112 554 48T354 -17Q204 -17 121 66T37 299Q37 415 83 513T220 671T427
731Q556 731 636 662T713 466Z" />
<glyph unicode="D" glyph-name="D" horiz-adv-x="741" d="M-4 0L147 714H405Q553 714 630 642T708 436Q708 242 601 121T295 0H-4ZM277 582L181 132H302Q418 132 484 211T551 409Q551 582 395 582H277Z" />
<glyph unicode="E" glyph-name="E" horiz-adv-x="667" d="M-4 0L146 714H691L664 582H276L244 429H603L577 307H218L181 132H575L547 0H-4Z" />
<glyph unicode="F" glyph-name="F" horiz-adv-x="593" d="M-4 0L147 714H655L626 582H276L241 417H547L521 295H216L153 0H-4Z" />
<glyph unicode="G" glyph-name="G" horiz-adv-x="759" d="M536 0V73H534Q468 -17 354 -17Q204 -17 121 66T37 299Q37 415 83 513T220 671T427 731Q560 731 645 667T730 478H573Q567 599 428 599Q352 599 297 552T218 438T194 299Q194 219 234 167T356 115Q440
115 486 155T554 269H389L414 386H717L635 0H536Z" />
<glyph unicode="H" glyph-name="H" horiz-adv-x="741" d="M-4 0L147 714H305L247 440H536L594 714H752L601 0H443L508 308H219L154 0H-4Z" />
<glyph unicode="I" glyph-name="I" horiz-adv-x="296" d="M-4 0L147 714H305L154 0H-4Z" />
<glyph unicode="J" glyph-name="J" horiz-adv-x="556" d="M565 714L459 203Q434 94 372 39T198 -17Q105 -17 43 25T-19 156Q-19 186 -6 266H137Q123 204 123 182Q123 151 145 133T200 115Q220 115 235 118T261 133T278 151T291 177T300 204T308 237L407 714H565Z" />
<glyph unicode="K" glyph-name="K" horiz-adv-x="722" d="M-4 0L145 714H302L240 415H242L566 714H774L431 420L650 0H473L310 321L201 226L154 0H-4Z" />
<glyph unicode="L" glyph-name="L" horiz-adv-x="574" d="M-4 0L146 714H304L182 132H527L499 0H-4Z" />
<glyph unicode="M" glyph-name="M" horiz-adv-x="907" d="M-4 0L147 714H364L419 197H421L696 714H915L764 0H617L747 568H745L443 0H323L254 568H252L145 0H-4Z" />
<glyph unicode="N" glyph-name="N" horiz-adv-x="741" d="M-4 0L147 714H309L503 206H505L607 714H751L600 0H443L247 501H245L143 0H-4Z" />
<glyph unicode="O" glyph-name="O" horiz-adv-x="778" d="M194 299Q194 219 234 167T356 115Q429 115 483 162T562 276T587 414Q587 496 548 547T428 599Q352 599 297 552T218 438T194 299ZM37 299Q37 415 83 513T220 671T427 731Q574 731 659 652T744 425Q744
305 700 206T565 45T354 -17Q204 -17 121 66T37 299Z" />
<glyph unicode="P" glyph-name="P" horiz-adv-x="667" d="M277 592L233 378H393Q454 378 488 409T522 503Q522 592 411 592H277ZM-4 0L145 714H431Q548 713 613 666T679 506Q679 392 598 324T401 256H207L153 0H-4Z" />
<glyph unicode="Q" glyph-name="Q" horiz-adv-x="778" d="M362 189L446 258L509 187Q547 230 567 291T587 414Q587 496 548 547T428 599Q352 599 297 552T218 438T194 299Q194 219 234 167T356 115Q388 115 418 126L362 189ZM682 -9L598 -79L514 17Q441 -17 354
-17Q204 -17 121 66T37 299Q37 415 83 513T220 671T427 731Q574 731 659 652T744 425Q744 321 709 230T606 77L682 -9Z" />
<glyph unicode="R" glyph-name="R" horiz-adv-x="722" d="M-4 0L146 714H487Q700 717 700 527Q700 454 654 400T536 335V333Q610 310 610 207Q610 192 608 149T605 83Q605 26 615 0H462Q455 30 455 48Q455 72 459 120T463 193Q463 242 437 260T360 279H212L153
0H-4ZM278 592L236 391H381Q450 392 496 420T543 504Q543 557 513 574T427 592H278Z" />
<glyph unicode="S" glyph-name="S" horiz-adv-x="648" d="M5 237H154Q150 166 192 136T308 105Q362 105 403 131T444 206Q444 221 439 233T423 254T402 270T371 284T338 295T301 306T263 317Q223 329 196 342T140 376T98 431T83 509Q83 566 107 610T173 680T263
718T366 731Q485 731 559 675T634 501H485Q487 557 452 583T357 609Q306 609 269 588T232 520Q232 505 238 493T258 471T283 454T315 441T346 432T378 425T402 419Q497 394 545 351T593 219Q593 158 567 111T498 37T406 -3T302 -17Q5 -17 5 237Z" />
<glyph unicode="T" glyph-name="T" horiz-adv-x="611" d="M156 0L278 582H54L82 714H678L650 582H436L314 0H156Z" />
<glyph unicode="U" glyph-name="U" horiz-adv-x="741" d="M750 714L663 299Q629 135 554 59T319 -17Q244 -17 184 2T81 71T38 195Q38 226 53 301L140 714H297L210 301Q195 232 195 211Q195 175 226 145T329 115Q367 115 394 123T439 145T469 183T489 231T504 291L593
714H750Z" />
<glyph unicode="V" glyph-name="V" horiz-adv-x="630" d="M712 714L331 0H154L72 714H229L276 178H278L549 714H712Z" />
<glyph unicode="W" glyph-name="W" horiz-adv-x="944" d="M1013 714L678 0H522L504 510H502L280 0H122L73 714H230L240 191H242L468 714H618L636 193H638L856 714H1013Z" />
<glyph unicode="X" glyph-name="X" horiz-adv-x="667" d="M-70 0L255 376L88 714H259L360 478L543 714H729L432 369L609 0H436L324 255L120 0H-70Z" />
<glyph unicode="Y" glyph-name="Y" horiz-adv-x="648" d="M175 0L232 277L61 714H222L329 410L551 714H736L388 270L333 0H175Z" />
<glyph unicode="Z" glyph-name="Z" horiz-adv-x="648" d="M-43 0L-16 130L461 582H95L124 714H688L662 588L181 132H584L558 0H-43Z" />
<glyph unicode="[" glyph-name="bracketleft" horiz-adv-x="333" d="M-37 -182L155 731H413L389 619H264L119 -70H245L221 -182H-37Z" />
<glyph unicode="\" glyph-name="backslash" horiz-adv-x="389" d="M112 731L391 -17H277L-2 731H112Z" />
<glyph unicode="]" glyph-name="bracketright" horiz-adv-x="333" d="M338 731L146 -182H-112L-88 -70H37L182 619H56L80 731H338Z" />
<glyph unicode="^" glyph-name="asciicircum" horiz-adv-x="600" d="M61 315L233 700H367L539 315H422L300 590L178 315H61Z" />
<glyph unicode="_" glyph-name="underscore" horiz-adv-x="500" d="M0 -125V-75H500V-125H0Z" />
<glyph unicode="`" glyph-name="grave" horiz-adv-x="259" d="M176 723L264 581H164L24 723H176Z" />
<glyph unicode="a" glyph-name="a" horiz-adv-x="574" d="M346 198L360 248Q328 229 240 223Q190 217 163 200T135 139Q135 111 157 96T213 81Q272 81 301 113T346 198ZM193 360H60Q73 451 140 491T305 531Q345 531 378 526T446 507T501 465T520 395Q520 367 509
308L463 100Q456 75 456 30Q456 15 461 0H319V51Q261 -14 161 -14Q80 -14 37 25T-7 122Q-7 195 45 241T191 298Q213 301 243 304T289 308T324 313T353 321T371 332T384 349T388 373Q388 407 361 421T298 436Q258 436 229 417T193 360Z" />
<glyph unicode="b" glyph-name="b" horiz-adv-x="611" d="M377 424T325 424T237 387T186 301T171 202Q171 154 198 124T274 93Q324 93 360 129T411 213T426 309Q426 361 402 392ZM-12 0L138 714H280L227 462H229Q263 499 297 515T382 531Q475 531 521 470T568
311Q568 228 539 156T447 35T300 -14Q171 -14 138 81H136L119 0H-12Z" />
<glyph unicode="c" glyph-name="c" horiz-adv-x="556" d="M534 338H392Q392 424 297 424Q259 424 230 403T184 347T160 277T152 205Q152 154 175 124T250 93Q294 93 323 120T365 189H507Q439 -14 240 -14Q130 -14 70 41T10 208Q10 345 88 438T302 531Q403 531
467 484T534 338Z" />
<glyph unicode="d" glyph-name="d" horiz-adv-x="611" d="M350 0L364 64L362 66Q316 -14 207 -14Q115 -14 63 41T10 190Q10 255 27 315T79 424T168 502T292 531Q340 531 380 510T437 448H439L496 714H638L487 0H350ZM357 424T307 424T220 388T168 305T152 208T178
126T253 93Q303 93 340 130T393 215T409 312Q409 363 383 393Z" />
<glyph unicode="e" glyph-name="e" horiz-adv-x="574" d="M528 224H147Q146 211 146 194Q146 147 175 120T260 93Q287 93 308 105T341 130T366 164H508Q473 74 411 30T240 -14Q134 -14 72 45T10 212Q10 342 89 436T295 531Q406 531 471 473T536 305Q536 264 528
224ZM162 314H399Q399 424 303 424Q202 424 162 314Z" />
<glyph unicode="f" glyph-name="f" horiz-adv-x="352" d="M17 0L106 422H22L42 517H127Q139 575 149 606T181 666T238 708T328 720Q371 720 421 712L399 610Q354 613 353 613Q338 613 327 612T308 604T296 595T287 579T281 563T275 541T269 517H370L350 422H248L159
0H17Z" />
<glyph unicode="g" glyph-name="g" horiz-adv-x="611" d="M304 424Q238 424 199 362T159 229Q159 180 183 148T255 115Q326 115 366 176T406 312Q406 363 380 393T304 424ZM590 517L487 27Q461 -92 395 -144T202 -196Q145 -196 98 -181T16 -126T-19 -27H123Q122
-63 149 -82T216 -101Q248 -101 271 -89T311 -48T337 7T360 79L358 81Q303 8 216 8Q124 8 71 65T17 219Q17 297 46 367T137 484T278 531Q396 531 436 438H438L454 517H590Z" />
<glyph unicode="h" glyph-name="h" horiz-adv-x="611" d="M-12 0L137 714H279L226 457H228Q249 486 292 508T399 531Q472 531 511 496T550 392Q550 370 535 303L471 0H329L392 303Q401 337 401 366Q401 388 380 403T333 419Q273 419 237 378T188 275L130 0H-12Z" />
<glyph unicode="i" glyph-name="i" horiz-adv-x="259" d="M-12 0L98 517H241L131 0H-12ZM283 714L257 597H114L140 714H283Z" />
<glyph unicode="j" glyph-name="j" horiz-adv-x="259" d="M-132 -177L-108 -63Q-74 -65 -57 -65Q-48 -65 -41 -60T-28 -48T-19 -29T-12 -9T-7 12T-3 28L100 517H242L129 -19Q110 -106 70 -144T-63 -182Q-76 -182 -99 -180T-132 -177ZM283 714L257 597H114L140 714H283Z" />
<glyph unicode="k" glyph-name="k" horiz-adv-x="556" d="M-12 0L138 714H280L198 326L200 324L404 517H579L347 321L480 0H324L239 231L165 168L130 0H-12Z" />
<glyph unicode="l" glyph-name="l" horiz-adv-x="259" d="M-12 0L140 714H282L130 0H-12Z" />
<glyph unicode="m" glyph-name="m" horiz-adv-x="907" d="M-12 0L96 517H232L216 444H218Q282 531 399 531Q448 531 481 509T524 441Q550 480 599 505T699 531Q765 531 810 497T856 400Q856 382 841 304L777 0H635L703 327Q707 357 707 364Q707 387 690 403T645
419Q593 419 559 376T512 277L454 0H311L379 327Q383 357 383 364Q383 387 366 403T321 419Q269 419 235 376T188 277L130 0H-12Z" />
<glyph unicode="n" glyph-name="n" horiz-adv-x="611" d="M-12 0L96 517H232L216 445H218Q287 531 399 531Q472 531 511 496T550 392Q550 370 535 303L471 0H329L392 303Q401 337 401 366Q401 388 380 403T333 419Q273 419 237 378T188 275L130 0H-12Z" />
<glyph unicode="o" glyph-name="o" horiz-adv-x="593" d="M10 209Q10 345 91 438T307 531Q418 531 483 476T548 312Q548 172 467 79T247 -14Q137 -14 74 43T10 209ZM152 209Q152 160 179 127T254 93Q304 93 340 130T391 215T406 310Q406 424 302 424Q231 424 192
355T152 209Z" />
<glyph unicode="p" glyph-name="p" horiz-adv-x="611" d="M323 424Q273 424 236 387T183 302T167 205Q167 154 193 124T269 93T356 129T408 212T424 309T398 391T323 424ZM-59 -182L90 517H227L213 453L215 451Q261 531 370 531Q462 531 514 476T566 327Q566 262
549 202T498 93T409 15T285 -14Q237 -14 197 7T140 69H137L83 -182H-59Z" />
<glyph unicode="q" glyph-name="q" horiz-adv-x="611" d="M590 517L443 -182H301L348 41H346Q294 -14 200 -14Q105 -14 58 47T10 206Q10 289 39 361T131 482T278 531Q407 531 440 436H442L459 517H590ZM308 424Q256 424 219 388T167 304T152 208Q152 93 257 93Q327
93 369 164T411 315Q411 363 384 393T308 424Z" />
<glyph unicode="r" glyph-name="r" horiz-adv-x="389" d="M-12 0L96 517H231L210 424L212 422Q235 474 283 502T390 531Q412 531 434 528L405 390Q360 399 345 399Q270 399 233 353T178 229L130 0H-12Z" />
<glyph unicode="s" glyph-name="s" horiz-adv-x="519" d="M484 366H352Q350 436 272 436Q185 436 185 385Q185 368 199 356T250 333L321 310Q386 289 421 256T457 162Q457 101 419 60T328 3T211 -14Q156 -14 109 0T26 52T-9 147V168H123V151Q123 118 154 100T225
81Q262 81 288 96T315 143Q315 168 303 179T264 200L155 235Q97 254 70 282T43 367T80 463T167 516T272 531Q369 531 427 495T484 366Z" />
<glyph unicode="t" glyph-name="t" horiz-adv-x="370" d="M310 674L278 517H380L358 422H257L204 165Q200 143 200 141Q200 124 208 115T225 105T248 103Q274 103 299 106L275 -4Q227 -9 186 -9Q127 -9 89 15T51 96Q51 114 58 145L116 422H23L45 517H136L168 674H310Z" />
<glyph unicode="u" glyph-name="u" horiz-adv-x="611" d="M586 517L478 0H342L358 72H356Q287 -14 175 -14Q102 -14 63 21T24 125Q24 146 39 214L103 517H245L182 214Q173 180 173 151Q173 129 194 114T241 98Q301 98 337 139T386 242L444 517H586Z" />
<glyph unicode="v" glyph-name="v" horiz-adv-x="519" d="M543 517L260 0H98L30 517H176L208 149H210L393 517H543Z" />
<glyph unicode="w" glyph-name="w" horiz-adv-x="815" d="M834 517L564 0H416L398 363H396L236 0H87L30 517H175L195 153H197L356 517H500L516 156H518L684 517H834Z" />
<glyph unicode="x" glyph-name="x" horiz-adv-x="519" d="M531 517L316 269L447 0H297L222 170L84 0H-77L163 277L46 517H198L255 368L372 517H531Z" />
<glyph unicode="y" glyph-name="y" horiz-adv-x="519" d="M543 517L214 -73Q178 -138 137 -160T13 -182Q-1 -182 -27 -180T-63 -177L-39 -59Q-30 -59 -11 -62T19 -65Q42 -65 59 -57T83 -42T100 -17T113 5L21 517H167L212 147H214L393 517H543Z" />
<glyph unicode="z" glyph-name="z" horiz-adv-x="500" d="M-51 0L-29 105L295 410H46L69 517H503L481 412L156 107H441L418 0H-51Z" />
<glyph unicode="{" glyph-name="braceleft" horiz-adv-x="333" d="M411 731L388 619H334Q278 619 265 546L233 394Q212 289 109 276V273Q137 270 162 252T188 194Q188 180 185 163L152 3Q148 -13 148 -35Q148 -70 190 -70H244L221 -182H94Q59 -182 28 -154T-4
-75Q-4 -62 -1 -47L40 148Q42 160 42 164Q42 197 17 214T-35 231L-17 318Q14 318 49 340T94 408L133 596Q146 658 194 694T284 731H411Z" />
<glyph unicode="|" glyph-name="bar" horiz-adv-x="222" d="M58 -214V786H165V-214H58Z" />
<glyph unicode="}" glyph-name="braceright" horiz-adv-x="333" d="M-110 -182L-87 -70H-33Q23 -70 36 3L68 155Q89 260 192 273V276Q164 279 139 297T113 355Q113 370 116 386L149 546Q153 562 153 584Q153 619 111 619H57L80 731H207Q242 731 273 703T305 624Q305
611 302 596L261 401Q259 389 259 385Q259 352 284 335T336 318L318 231Q287 231 252 209T207 141L168 -47Q155 -109 107 -145T17 -182H-110Z" />
<glyph unicode="~" glyph-name="asciitilde" horiz-adv-x="600" d="M493 344L533 251Q513 224 500 209T462 180T408 165Q366 165 306 198Q244 233 191 233Q140 233 107 161L67 254Q112 340 192 340Q231 340 303 308Q310 305 324 299T347 289T367 281T388 274T405
272Q424 272 441 284T468 308T493 344Z" />
</font>
</defs>
</svg>
