<?xml version="1.0" standalone="no"?> <!DOCTYPE svg PUBLIC "-//W3C//DTD SVG 1.0//EN" "http://www.w3.org/TR/2001/REC-SVG-20010904/DTD/svg10.dtd" > <svg xmlns="http://www.w3.org/2000/svg" width="100%" height="100%">
<defs >
<font id="HelveticaNeueLTStd-BdCn" horiz-adv-x="400" ><font-face
    font-family="HelveticaNeueLT Std Cn"
    units-per-em="1000"
    panose-1="2 11 7 6 3 5 2 3 2 4"
    ascent="714"
    descent="-286"
    alphabetic="0" />
<missing-glyph horiz-adv-x="500" d="M0 0V700H500V0H0ZM250 395L420 650H80L250 395ZM280 350L450 95V605L280 350ZM80 50H420L250 305L80 50ZM50 605V95L220 350L50 605Z" />
<glyph unicode=" " glyph-name="space" horiz-adv-x="240" />
<glyph unicode="!" glyph-name="exclam" horiz-adv-x="296" d="M198 199H98L79 482V714H217V482L198 199ZM79 132H217V0H79V132Z" />
<glyph unicode="&quot;" glyph-name="quotedbl" horiz-adv-x="463" d="M267 393V714H391V393H267ZM72 393V714H196V393H72Z" />
<glyph unicode="#" glyph-name="numbersign" horiz-adv-x="480" d="M0 174V286H87L103 408H30V520H116L138 694H234L213 520H310L332 694H429L407 520H480V408H394L378 286H451V174H365L343 0H246L268 174H170L149 0H52L74 174H0ZM199 408L184 286H281L297 408H199Z" />
<glyph unicode="$" glyph-name="dollar" horiz-adv-x="480" d="M269 269V92Q327 105 327 172Q327 238 269 269ZM205 442V602Q156 587 156 526Q156 471 205 442ZM205 -101V-14Q91 -5 50 48T9 191V212H147Q147 161 158 131T205 92V294L155 312Q18 361 18 504Q18
594 66 646T205 708V777H269V708Q454 693 454 519V505H316Q314 587 269 602V413L348 381Q410 355 440 316T471 200Q471 94 421 44T269 -14V-101H205Z" />
<glyph unicode="%" glyph-name="percent" horiz-adv-x="778" d="M557 181Q557 115 565 89T601 62T637 88T645 181Q645 241 637 266T601 292T565 267T557 181ZM451 74T451 177T481 324T601 368T720 324T751 177T721 30T601 -14T482 30ZM27 414T27 517T57 664T177
708T296 664T327 517T297 370T177 326T58 370ZM133 521Q133 455 141 429T177 402T213 428T221 521Q221 581 213 606T177 632T141 607T133 521ZM140 -31L546 725H635L229 -31H140Z" />
<glyph unicode="&amp;" glyph-name="ampersand" horiz-adv-x="593" d="M201 568Q201 538 237 490L254 466L280 488Q325 525 325 566Q325 595 308 610T262 626Q236 626 219 611T201 568ZM343 143L223 313Q150 256 150 192Q150 155 177 127T250 98Q307 98 343 143ZM319
380L426 235Q451 287 451 343H575Q575 236 502 132L596 0H443L403 55Q376 23 330 5T231 -14Q179 -14 139 0T76 35T37 85T17 139T12 192Q12 309 156 398L131 435Q102 477 93 504T83 564Q83 633 133 673T265 714Q353 714 398 673T443 565Q443 513 413 469T319 380Z"
/>
<glyph unicode="&apos;" glyph-name="quotesingle" horiz-adv-x="260" d="M68 393V714H192V393H68Z" />
<glyph unicode="(" glyph-name="parenleft" horiz-adv-x="296" d="M190 714H296Q234 602 208 498T182 265T208 33T296 -184H190Q50 39 50 265T190 714Z" />
<glyph unicode=")" glyph-name="parenright" horiz-adv-x="296" d="M0 714H106Q246 491 246 265T106 -184H0Q62 -72 88 32T114 265T88 497T0 714Z" />
<glyph unicode="*" glyph-name="asterisk" horiz-adv-x="390" d="M154 714H236V586L358 626L383 548L261 508L337 404L270 356L195 460L120 356L53 404L129 508L7 548L32 626L154 586V714Z" />
<glyph unicode="+" glyph-name="plus" horiz-adv-x="600" d="M238 0V191H47V315H238V506H362V315H553V191H362V0H238Z" />
<glyph unicode="," glyph-name="comma" horiz-adv-x="240" d="M54 156H186V26Q186 -62 158 -110T54 -165V-95Q79 -91 92 -69T106 -16V0H54V156Z" />
<glyph unicode="-" glyph-name="hyphen" horiz-adv-x="370" d="M44 348H326V230H44V348Z" />
<glyph unicode="." glyph-name="period" horiz-adv-x="240" d="M54 156H186V0H54V156Z" />
<glyph unicode="/" glyph-name="slash" horiz-adv-x="332" d="M-3 -14L223 728H335L109 -14H-3Z" />
<glyph unicode="0" glyph-name="zero" horiz-adv-x="480" d="M162 376V299Q162 166 177 123T240 80T302 129T318 318V395Q318 528 303 571T240 614T178 565T162 376ZM18 330Q18 380 19 413T25 490T39 561T64 620T103 667T161 696T240 708Q366 708 414 632T462
364Q462 321 461 291T457 223T448 158T431 102T403 53T364 18T310 -6T240 -14Q114 -14 66 62T18 330Z" />
<glyph unicode="1" glyph-name="one" horiz-adv-x="480" d="M326 0H182V500H41V594H54Q200 594 220 708H326V0Z" />
<glyph unicode="2" glyph-name="two" horiz-adv-x="480" d="M454 112V0H18Q18 92 55 163T174 310L232 364Q278 406 292 438T306 526Q306 614 236 614Q187 614 172 579T156 476H18V503Q18 708 238 708Q343 708 396 658T450 515Q450 446 426 396T340 290L260 216Q200
162 187 112H454Z" />
<glyph unicode="3" glyph-name="three" horiz-adv-x="480" d="M20 207H158Q160 140 176 110T237 80Q285 80 300 109T316 194Q316 250 297 282T223 315H175V409H222Q264 409 284 441T304 521Q304 570 288 592T235 614Q192 614 177 585T162 499H30Q30 602 83 655T238
708Q442 708 442 526Q442 463 414 422T334 370V368Q460 349 460 201Q460 161 450 127T417 59T344 6T225 -14Q124 -14 72 43T20 204V207Z" />
<glyph unicode="4" glyph-name="four" horiz-adv-x="480" d="M266 259V528H264L126 259H266ZM14 147V265L249 708H398V259H466V147H398V0H266V147H14Z" />
<glyph unicode="5" glyph-name="five" horiz-adv-x="480" d="M425 694V582H164L149 421H151Q190 474 281 474Q330 474 365 455T418 403T445 331T454 248Q454 120 405 53T227 -14Q163 -14 119 5T55 56T26 118T18 183V202H156Q156 86 226 86Q310 86 310 224Q310
312 293 343T227 374Q167 374 159 309H30L56 694H425Z" />
<glyph unicode="6" glyph-name="six" horiz-adv-x="480" d="M449 528H311Q311 614 246 614Q218 614 200 601T173 562T161 507T158 434V399H160Q200 460 293 460Q383 460 424 401T466 239Q466 -14 237 -14Q180 -14 138 4T73 52T36 126T18 215T14 317Q14 359 14
383T17 446T23 507T36 562T56 611T86 650T127 682T182 700T252 708Q292 708 325 699T387 670T432 614T449 528ZM165 220Q166 150 182 115T244 80Q292 80 307 115T322 220Q322 292 304 323T244 354Q201 354 183 323T165 220Z" />
<glyph unicode="7" glyph-name="seven" horiz-adv-x="480" d="M22 694H458V584Q374 465 321 312T250 0H99Q141 328 320 570H22V694Z" />
<glyph unicode="8" glyph-name="eight" horiz-adv-x="480" d="M14 200Q14 269 45 316T134 375V377Q82 391 57 430T32 513Q32 708 240 708T448 513Q448 469 423 430T346 377V375Q404 363 435 316T466 200Q466 172 462 147T443 91T405 38T339 1T240 -14T142 1T76
38T38 90T19 146T14 200ZM170 517Q170 469 189 444T240 418T291 443T310 517Q310 614 240 614T170 517ZM158 324T158 202T240 80T322 202T240 324Z" />
<glyph unicode="9" glyph-name="nine" horiz-adv-x="480" d="M31 165H169Q169 80 234 80Q262 80 280 93T307 132T319 187T322 260V294H320Q280 234 187 234Q97 234 56 293T14 455Q14 708 243 708Q300 708 342 690T407 642T444 568T462 479T466 377Q466 335 466
310T463 247T457 186T444 132T424 83T394 44T353 12T298 -6T228 -14Q173 -14 132 1T61 58T31 165ZM158 474Q158 402 176 371T236 340Q279 340 297 371T315 474Q314 544 298 579T236 614Q188 614 173 579T158 474Z" />
<glyph unicode=":" glyph-name="colon" horiz-adv-x="240" d="M54 0V156H186V0H54ZM54 365V521H186V365H54Z" />
<glyph unicode=";" glyph-name="semicolon" horiz-adv-x="240" d="M54 156H186V26Q186 -62 158 -110T54 -165V-95Q79 -91 92 -69T106 -16V0H54V156ZM54 521H186V365H54V521Z" />
<glyph unicode="&lt;" glyph-name="less" horiz-adv-x="600" d="M47 200V306L553 514V390L215 253L553 116V-8L47 200Z" />
<glyph unicode="=" glyph-name="equal" horiz-adv-x="600" d="M47 300V424H553V300H47ZM47 82V206H553V82H47Z" />
<glyph unicode="&gt;" glyph-name="greater" horiz-adv-x="600" d="M47 -8V116L385 253L47 390V514L553 306V200L47 -8Z" />
<glyph unicode="?" glyph-name="question" horiz-adv-x="481" d="M168 493H36V516Q36 609 87 665T234 722Q337 722 391 671T445 529Q445 444 382 373L342 328Q314 297 304 274T293 213V198H169V237Q169 286 183 320T231 394L269 437Q307 479 307 543Q307 582 290
605T239 628Q168 628 168 518V493ZM162 132H300V0H162V132Z" />
<glyph unicode="@" glyph-name="at" horiz-adv-x="800" d="M299 326Q299 292 319 269T370 245Q419 245 452 285T486 373Q486 404 464 426T411 449Q365 449 332 410T299 326ZM522 488L535 541H623L565 291Q559 264 559 250Q559 230 579 230Q613 230 648 280T683
404Q683 502 604 568T417 634Q302 634 222 550T141 356Q141 243 225 162T424 80Q536 80 641 144H730Q619 -14 400 -14Q246 -14 138 94T29 357T137 619T400 728T662 644T771 425Q771 365 751 315T702 233T637 179T571 148T520 139Q460 139 455 192H453Q404 139 333
139Q276 139 232 186T187 309Q187 406 247 480T401 555Q481 555 522 488Z" />
<glyph unicode="A" glyph-name="A" horiz-adv-x="556" d="M0 0L189 714H367L556 0H406L373 151H183L150 0H0ZM277 590L208 269H348L279 590H277Z" />
<glyph unicode="B" glyph-name="B" horiz-adv-x="556" d="M50 0V714H291Q494 714 494 533Q494 474 466 433T386 377V375Q446 367 481 323T516 209Q516 116 464 58T293 0H50ZM194 608V421H235Q295 421 322 443T350 515T325 586T246 608H194ZM194 321V106H250Q306
106 336 130T366 214Q366 321 256 321H194Z" />
<glyph unicode="C" glyph-name="C" horiz-adv-x="537" d="M499 473H355Q355 553 336 587T269 622Q216 622 198 563T179 347Q179 241 189 185T219 110T271 92Q300 92 318 104T348 158T361 273H505Q505 210 496 163T463 73T393 9T278 -14Q215 -14 170 4T99 53T59
133T40 234T35 357T39 480T58 580T99 661T170 709T278 728Q337 728 380 711T445 669T480 607T496 540T499 473Z" />
<glyph unicode="D" glyph-name="D" horiz-adv-x="574" d="M57 0V714H293Q352 714 394 698T462 653T503 580T523 485T529 367Q529 170 476 85T284 0H57ZM201 608V106H265Q338 106 361 159T385 363Q385 497 362 552T262 608H201Z" />
<glyph unicode="E" glyph-name="E" horiz-adv-x="481" d="M50 714H449V596H194V428H434V310H194V118H459V0H50V714Z" />
<glyph unicode="F" glyph-name="F" horiz-adv-x="463" d="M50 0V714H449V596H194V428H434V310H194V0H50Z" />
<glyph unicode="G" glyph-name="G" horiz-adv-x="556" d="M505 502H367Q367 548 346 585T285 622Q233 622 210 564T187 372Q187 229 207 161T286 92Q316 92 345 122T375 206V279H280V385H513V0H407V66H405Q356 -14 255 -14Q190 -14 148 9T83 84T52 200T43 365Q43
553 96 640T283 728Q399 728 452 671T505 502Z" />
<glyph unicode="H" glyph-name="H" horiz-adv-x="556" d="M50 0V714H194V441H362V714H506V0H362V317H194V0H50Z" />
<glyph unicode="I" glyph-name="I" horiz-adv-x="258" d="M201 0H57V714H201V0Z" />
<glyph unicode="J" glyph-name="J" horiz-adv-x="463" d="M275 714H419V200Q419 87 367 37T204 -14Q99 -14 57 42T15 195V226H147V204Q147 144 160 118T211 92T261 118T275 204V714Z" />
<glyph unicode="K" glyph-name="K" horiz-adv-x="537" d="M50 714H194V428H196L378 714H534L340 408L556 0H394L247 293L194 212V0H50V714Z" />
<glyph unicode="L" glyph-name="L" horiz-adv-x="463" d="M449 0H50V714H194V118H449V0Z" />
<glyph unicode="M" glyph-name="M" horiz-adv-x="740" d="M53 0V714H267L369 210H371L474 714H687V0H555V570H553L426 0H314L187 570H185V0H53Z" />
<glyph unicode="N" glyph-name="N" horiz-adv-x="574" d="M50 714H216L390 225H392V714H524V0H360L184 500H182V0H50V714Z" />
<glyph unicode="O" glyph-name="O" horiz-adv-x="556" d="M35 284T35 357T39 480T58 580T99 661T170 709T278 728T386 710T457 661T497 581T516 480T521 357T517 234T498 134T457 53T386 5T278 -14T170 4T99 53T59 133T40 234ZM179 357Q179 205 198 149T278 92T358
148T377 357Q377 508 358 565T278 622T198 565T179 357Z" />
<glyph unicode="P" glyph-name="P" horiz-adv-x="519" d="M50 0V714H302Q371 714 417 682T480 604T498 500Q498 392 438 339T271 285H194V0H50ZM194 608V391H258Q302 391 328 418T354 498Q354 608 254 608H194Z" />
<glyph unicode="Q" glyph-name="Q" horiz-adv-x="556" d="M543 -11L458 -88L373 0Q352 -8 329 -11Q306 -14 278 -14Q215 -14 170 4T99 53T59 133T40 234T35 357T39 480T58 580T99 661T170 709T278 728T386 710T457 661T497 581T516 480T521 357Q521 253 510 184T466
67L543 -11ZM179 357Q179 205 198 149T278 92T358 148T377 357Q377 508 358 565T278 622T198 565T179 357Z" />
<glyph unicode="R" glyph-name="R" horiz-adv-x="556" d="M194 608V402H254Q362 402 362 509Q362 608 262 608H194ZM50 0V714H316Q406 714 456 667T506 530Q506 379 387 354V352Q458 343 479 298T502 134Q503 72 509 44T534 6V0H378Q362 23 360 75L356 212Q353
302 271 302H194V0H50Z" />
<glyph unicode="S" glyph-name="S" horiz-adv-x="519" d="M22 223H166V202Q166 147 186 120T261 92Q297 92 322 115T347 180Q347 227 320 251T219 302Q119 336 76 384T32 518Q32 620 90 674T253 728Q355 728 414 681T474 536V516H336Q336 622 258 622Q176 622
176 539Q176 504 191 483T250 442L361 394Q439 360 468 317T497 205Q497 -14 249 -14Q130 -14 76 39T22 194V223Z" />
<glyph unicode="T" glyph-name="T" horiz-adv-x="480" d="M12 714H468V596H312V0H168V596H12V714Z" />
<glyph unicode="U" glyph-name="U" horiz-adv-x="538" d="M41 714H185V216Q185 157 203 125T269 92T334 124T353 216V714H497V216Q497 150 479 104T427 33T355 -3T269 -14Q221 -14 184 -5T112 29T60 100T41 216V714Z" />
<glyph unicode="V" glyph-name="V" horiz-adv-x="519" d="M3 714H157L258 186H261L367 714H516L352 0H167L3 714Z" />
<glyph unicode="W" glyph-name="W" horiz-adv-x="760" d="M138 0L8 714H146L225 186H227L311 714H449L533 186H535L614 714H752L622 0H461L381 518H379L299 0H138Z" />
<glyph unicode="X" glyph-name="X" horiz-adv-x="537" d="M184 361L20 714H179L271 483L362 714H519L353 361L531 0H369L266 242L164 0H6L184 361Z" />
<glyph unicode="Y" glyph-name="Y" horiz-adv-x="520" d="M3 714H165L259 438H261L361 714H517L332 281V0H188V281L3 714Z" />
<glyph unicode="Z" glyph-name="Z" horiz-adv-x="481" d="M24 0V105L287 596H42V714H453V605L186 118H457V0H24Z" />
<glyph unicode="[" glyph-name="bracketleft" horiz-adv-x="315" d="M80 -184V714H309V614H204V-84H309V-184H80Z" />
<glyph unicode="\" glyph-name="backslash" horiz-adv-x="332" d="M223 -14L-3 728H109L335 -14H223Z" />
<glyph unicode="]" glyph-name="bracketright" horiz-adv-x="315" d="M6 -184V-84H111V614H6V714H235V-184H6Z" />
<glyph unicode="^" glyph-name="asciicircum" horiz-adv-x="600" d="M180 309H56L244 694H356L544 309H420L300 556L180 309Z" />
<glyph unicode="_" glyph-name="underscore" horiz-adv-x="500" d="M500 -125H0V-75H500V-125Z" />
<glyph unicode="`" glyph-name="grave" horiz-adv-x="222" d="M176 601H82L-16 745H122L176 601Z" />
<glyph unicode="a" glyph-name="a" horiz-adv-x="481" d="M169 373H45V386Q45 473 97 512T234 552Q348 552 388 511T429 387V104Q429 38 446 0H314Q306 15 297 56H295Q272 16 241 1T158 -14Q92 -14 60 32T28 140Q28 214 59 251T164 308L242 329Q273 337 285 351T297
392Q297 458 233 458Q202 458 186 439T169 388V373ZM297 163V269Q271 250 238 242Q197 233 179 212T160 155Q160 122 173 101T212 80Q244 80 270 101T297 163Z" />
<glyph unicode="b" glyph-name="b" horiz-adv-x="500" d="M184 363T184 269T199 134T257 92T314 133T329 269T315 404T257 446T199 405ZM46 0V714H184V488H186Q229 552 302 552Q387 552 427 485T467 269T427 53T302 -14Q223 -14 180 57H178V0H46Z" />
<glyph unicode="c" glyph-name="c" horiz-adv-x="463" d="M437 344H305Q305 452 243 452Q195 452 180 411T164 268Q164 163 178 122T238 80Q305 80 305 206H437Q437 97 388 42T232 -14T76 49T26 269Q26 425 83 488T244 552Q338 552 387 497T437 344Z" />
<glyph unicode="d" glyph-name="d" horiz-adv-x="500" d="M171 363T171 269T185 134T243 92T301 133T316 269T301 404T243 446T186 405ZM322 0V57H320Q277 -14 198 -14Q113 -14 73 53T33 269T73 485T198 552Q271 552 314 488H316V714H454V0H322Z" />
<glyph unicode="e" glyph-name="e" horiz-adv-x="463" d="M437 248H164V205Q164 152 180 116T232 80Q265 80 282 104T305 181H429Q421 -14 234 -14Q192 -14 160 -5T106 19T69 57T45 104T33 159T27 215T26 274Q26 322 30 359T47 434T84 496T146 536T240 552Q353
552 395 484T437 279V248ZM164 330H305Q303 398 289 428T235 458Q197 458 181 427T164 351V330Z" />
<glyph unicode="f" glyph-name="f" horiz-adv-x="296" d="M76 0V444H6V538H76V599Q76 669 112 698T220 728Q256 728 294 725V627Q285 628 267 628Q238 628 226 618T214 585V538H294V444H214V0H76Z" />
<glyph unicode="g" glyph-name="g" horiz-adv-x="500" d="M317 538H449V27Q449 -81 397 -132T225 -184Q137 -184 90 -147T42 -40H174Q174 -66 195 -81Q217 -96 241 -96Q317 -96 317 1V72H315Q269 6 200 6Q116 6 76 69T35 278Q35 333 41 375T63 460T115 528T204
552Q281 552 315 478H317V538ZM173 252Q173 112 242 112Q317 112 317 266Q317 366 302 406T245 446Q201 446 187 406T173 252Z" />
<glyph unicode="h" glyph-name="h" horiz-adv-x="500" d="M46 0V714H184V483H186Q225 552 317 552Q454 552 454 399V0H316V371Q316 411 302 428T257 446Q184 446 184 357V0H46Z" />
<glyph unicode="i" glyph-name="i" horiz-adv-x="240" d="M51 0V538H189V0H51ZM51 604V722H189V604H51Z" />
<glyph unicode="j" glyph-name="j" horiz-adv-x="240" d="M51 10V538H189V-37Q189 -108 155 -142T31 -176Q15 -176 -25 -174V-74Q-18 -76 -3 -76Q31 -76 41 -58T51 10ZM51 604V722H189V604H51Z" />
<glyph unicode="k" glyph-name="k" horiz-adv-x="500" d="M51 714H189V337H191L330 538H482L327 326L505 0H353L238 221L189 157V0H51V714Z" />
<glyph unicode="l" glyph-name="l" horiz-adv-x="240" d="M51 0V714H189V0H51Z" />
<glyph unicode="m" glyph-name="m" horiz-adv-x="758" d="M46 0V538H178V483H180Q229 552 316 552Q363 552 396 530T440 466H442Q474 552 578 552Q712 552 712 391V0H574V376Q574 446 520 446Q486 446 467 423T448 354V0H310V376Q310 446 256 446Q222 446 203
423T184 354V0H46Z" />
<glyph unicode="n" glyph-name="n" horiz-adv-x="500" d="M46 0V538H178V475H180Q222 552 317 552Q454 552 454 399V0H316V371Q316 411 302 428T257 446Q184 446 184 357V0H46Z" />
<glyph unicode="o" glyph-name="o" horiz-adv-x="480" d="M28 269Q28 412 76 482T240 552Q359 554 405 486T452 269Q452 126 404 56T240 -14Q121 -16 75 52T28 269ZM166 317T166 269T168 192T177 135T199 93T240 80Q281 80 297 123T314 269T298 414T240 458Q215
458 200 445T177 404T168 346Z" />
<glyph unicode="p" glyph-name="p" horiz-adv-x="500" d="M184 363T184 269T199 134T257 92T314 133T329 269T315 404T257 446T199 405ZM46 -176V538H178V481H180Q223 552 302 552Q387 552 427 485T467 269T427 53T302 -14Q229 -14 186 50H184V-176H46Z" />
<glyph unicode="q" glyph-name="q" horiz-adv-x="500" d="M316 175T316 269T301 404T243 446T186 405T171 269T185 134T243 92T301 133ZM316 -176V50H314Q271 -14 198 -14Q113 -14 73 53T33 269T73 485T198 552Q277 552 320 481H322V538H454V-176H316Z" />
<glyph unicode="r" glyph-name="r" horiz-adv-x="333" d="M46 0V538H178V466H180Q226 552 304 552Q313 552 329 550V418Q301 420 286 420Q244 420 214 397T184 323V0H46Z" />
<glyph unicode="s" glyph-name="s" horiz-adv-x="444" d="M23 176H147V158Q147 122 165 101T219 80Q251 80 270 96T289 144Q289 186 239 205L142 240Q27 281 27 390Q27 462 75 507T225 552Q409 552 409 399V377H285Q285 419 271 438T224 458Q196 458 178 443T159
400Q159 357 219 337L302 309Q367 287 394 252T421 155Q421 73 366 30T221 -14Q111 -14 67 29T23 157V176Z" />
<glyph unicode="t" glyph-name="t" horiz-adv-x="296" d="M76 538V692H214V538H294V444H214V153Q214 120 224 107T263 94Q276 94 294 96V0Q234 -6 204 -6Q125 -6 101 23T76 136V444H6V538H76Z" />
<glyph unicode="u" glyph-name="u" horiz-adv-x="500" d="M322 0V63H320Q278 -14 183 -14Q46 -14 46 139V538H184V167Q184 127 198 110T243 92Q316 92 316 181V538H454V0H322Z" />
<glyph unicode="v" glyph-name="v" horiz-adv-x="444" d="M228 153L301 538H439L304 0H144L5 538H149L226 153H228Z" />
<glyph unicode="w" glyph-name="w" horiz-adv-x="704" d="M124 0L7 538H145L208 156H210L277 538H427L498 156H500L565 538H697L581 0H424L353 382H351L284 0H124Z" />
<glyph unicode="x" glyph-name="x" horiz-adv-x="462" d="M231 376L305 538H449L309 277L455 0H311L231 176L151 0H7L153 277L13 538H157L231 376Z" />
<glyph unicode="y" glyph-name="y" horiz-adv-x="444" d="M46 -176V-73Q64 -76 82 -76Q150 -76 156 0L5 538H149L229 166H231L301 538H439L309 36Q290 -37 275 -76T235 -139T182 -169T102 -176H46Z" />
<glyph unicode="z" glyph-name="z" horiz-adv-x="426" d="M24 0V106L239 426H34V538H402V432L187 112H402V0H24Z" />
<glyph unicode="{" glyph-name="braceleft" horiz-adv-x="315" d="M30 224V306Q56 306 76 329T96 387V580Q96 644 122 679T200 714H289V614H259Q220 614 220 542V376Q220 332 200 302T148 266V264Q180 258 200 228T220 154V-12Q220 -84 259 -84H289V-184H200Q149
-184 123 -149T96 -50V143Q96 177 76 200T30 224Z" />
<glyph unicode="|" glyph-name="bar" horiz-adv-x="222" d="M49 -14V728H173V-14H49Z" />
<glyph unicode="}" glyph-name="braceright" horiz-adv-x="315" d="M26 -184V-84H56Q95 -84 95 -12V154Q95 198 115 228T167 264V266Q135 272 115 302T95 376V542Q95 614 56 614H26V714H115Q166 714 192 679T219 580V387Q219 353 239 330T285 306V224Q259 224
239 201T219 143V-50Q219 -114 193 -149T115 -184H26Z" />
<glyph unicode="~" glyph-name="asciitilde" horiz-adv-x="600" d="M495 349L531 243Q485 157 408 157Q356 157 290 191Q223 225 195 225Q168 225 142 202T105 157L69 263Q115 349 192 349Q245 349 301 320Q375 281 405 281Q432 281 458 304T495 349Z" />
</font>
</defs>
</svg>
