<?xml version="1.0" standalone="no"?> <!DOCTYPE svg PUBLIC "-//W3C//DTD SVG 1.0//EN" "http://www.w3.org/TR/2001/REC-SVG-20010904/DTD/svg10.dtd" > <svg xmlns="http://www.w3.org/2000/svg" width="100%" height="100%">
<defs >
<font id="HelveticaNeueLTStd-BdCnO" horiz-adv-x="400" ><font-face
    font-family="HelveticaNeueLT Std Cn"
    units-per-em="1000"
    panose-1="2 11 7 6 3 5 2 3 2 4"
    ascent="714"
    descent="-286"
    alphabetic="0" />
<missing-glyph horiz-adv-x="648" d="M148 0V700H648V0H148ZM398 395L568 650H228L398 395ZM428 350L598 95V605L428 350ZM228 50H568L398 305L228 50ZM198 605V95L368 350L198 605Z" />
<glyph unicode=" " glyph-name="space" horiz-adv-x="240" />
<glyph unicode="!" glyph-name="exclam" horiz-adv-x="296" d="M240 199H140L181 482L231 714H369L319 482L240 199ZM107 132H245L217 0H79L107 132Z" />
<glyph unicode="&quot;" glyph-name="quotedbl" horiz-adv-x="463" d="M351 393L419 714H543L475 393H351ZM156 393L224 714H348L280 393H156Z" />
<glyph unicode="#" glyph-name="numbersign" horiz-adv-x="480" d="M37 174L61 286H148L190 408H117L141 520H227L286 694H382L324 520H421L480 694H577L518 520H591L567 408H481L439 286H512L488 174H402L343 0H246L305 174H207L149 0H52L111 174H37ZM286 408L245
286H342L384 408H286Z" />
<glyph unicode="$" glyph-name="dollar" horiz-adv-x="480" d="M326 269L289 92Q319 98 338 120T364 172Q377 239 326 269ZM299 442L333 602Q281 587 268 526Q256 471 299 442ZM184 -101L202 -14Q143 -9 107 9T57 54T42 117T50 191L54 212H192Q187 188 185 172T185
137T197 108T225 92L267 294L221 312Q95 362 125 504Q144 594 204 646T355 708L370 777H434L419 708Q601 693 564 519L561 505H423Q439 588 397 602L357 413L429 381Q486 355 508 316T514 200Q491 94 430 44T266 -14L248 -101H184Z" />
<glyph unicode="%" glyph-name="percent" horiz-adv-x="778" d="M595 181Q581 122 583 92T614 62T656 89T683 181Q697 234 694 263T663 292T622 267T595 181ZM489 177Q511 280 550 324T679 368T791 321T789 177Q767 74 727 30T598 -14T487 33T489 177ZM137 517Q159
620 198 664T327 708T439 661T437 517Q415 414 375 370T246 326T135 373T137 517ZM244 521Q229 462 231 432T262 402T304 428T332 521Q345 574 342 603T311 632T270 607T244 521ZM133 -31L700 725H789L222 -31H133Z" />
<glyph unicode="&amp;" glyph-name="ampersand" horiz-adv-x="593" d="M322 568Q316 538 341 490L353 466L384 488Q437 525 445 566Q452 595 438 610T395 626Q369 626 349 611T322 568ZM373 143L290 313Q204 256 191 192Q183 155 204 127T271 98Q328 98 373 143ZM400
380L476 235Q512 286 524 343H648Q626 236 530 132L596 0H443L415 55Q381 23 331 5T228 -14Q176 -14 139 0T83 35T56 85T47 139T53 192Q77 309 241 398L223 435Q190 506 203 564Q218 633 277 673T417 714Q505 714 541 673T563 565Q552 513 513 469T400 380Z" />
<glyph unicode="&apos;" glyph-name="quotesingle" horiz-adv-x="260" d="M152 393L220 714H344L276 393H152Z" />
<glyph unicode="(" glyph-name="parenleft" horiz-adv-x="296" d="M342 714H448Q362 602 314 498T238 265Q211 139 215 34T257 -184H151Q59 37 106 265Q154 491 342 714Z" />
<glyph unicode=")" glyph-name="parenright" horiz-adv-x="296" d="M152 714H258Q351 492 302 265Q255 40 67 -184H-39Q46 -72 94 32T170 265Q197 390 194 496T152 714Z" />
<glyph unicode="*" glyph-name="asterisk" horiz-adv-x="390" d="M306 714H388L361 586L491 626L499 548L369 508L423 404L346 356L293 460L196 356L139 404L237 508L123 548L165 626L279 586L306 714Z" />
<glyph unicode="+" glyph-name="plus" horiz-adv-x="600" d="M238 0L279 191H88L114 315H305L346 506H470L429 315H620L594 191H403L362 0H238Z" />
<glyph unicode="," glyph-name="comma" horiz-adv-x="240" d="M87 156H219L192 26Q173 -62 135 -110T19 -165L34 -95Q60 -91 78 -69T103 -16L106 0H54L87 156Z" />
<glyph unicode="-" glyph-name="hyphen" horiz-adv-x="370" d="M118 348H400L375 230H93L118 348Z" />
<glyph unicode="." glyph-name="period" horiz-adv-x="240" d="M87 156H219L186 0H54L87 156Z" />
<glyph unicode="/" glyph-name="slash" horiz-adv-x="332" d="M-6 -14L378 728H490L106 -14H-6Z" />
<glyph unicode="0" glyph-name="zero" horiz-adv-x="480" d="M242 376L226 299Q198 166 204 123T257 80T330 129T386 318L402 395Q430 528 424 571T371 614T298 565T242 376ZM88 330Q99 380 107 413T129 490T158 561T195 620T245 668T309 696T390 708Q517 708
549 630T539 364Q528 314 520 281T498 204T469 132T432 74T382 26T318 -3T237 -14Q111 -14 79 64T88 330Z" />
<glyph unicode="1" glyph-name="one" horiz-adv-x="480" d="M326 0H182L288 500H147L167 594H180Q326 594 370 708H476L326 0Z" />
<glyph unicode="2" glyph-name="two" horiz-adv-x="480" d="M478 112L454 0H18Q38 92 90 163T240 310L309 364Q364 406 385 438T418 526Q436 614 367 614Q318 614 295 579T257 476H119L125 503Q169 708 388 708Q493 708 536 658T559 515Q545 446 510 396T402 290L306
216Q235 162 211 112H478Z" />
<glyph unicode="3" glyph-name="three" horiz-adv-x="480" d="M64 207H202Q188 146 198 113T254 80Q302 80 323 109T357 194Q363 226 363 253T346 297T290 315H242L262 409H309Q351 409 377 441T415 521Q425 570 414 592T366 614Q323 614 302 585T268 499H136Q181
708 388 708Q486 708 529 663T554 526Q541 463 504 422T413 370L412 368Q534 349 503 201Q495 161 478 127T429 59T345 6T222 -14Q121 -14 82 43T63 204L64 207Z" />
<glyph unicode="4" glyph-name="four" horiz-adv-x="480" d="M321 259L378 528H376L181 259H321ZM45 147L70 265L399 708H548L453 259H521L497 147H429L398 0H266L297 147H45Z" />
<glyph unicode="5" glyph-name="five" horiz-adv-x="480" d="M573 694L549 582H288L238 421H240Q290 474 382 474Q446 474 480 441T515 357T507 248Q480 120 416 53T224 -14Q172 -14 136 -1T83 32T57 80T50 132T57 183L61 202H199Q174 86 244 86Q328 86 358 224Q376
312 366 343T306 374Q246 374 225 309H96L204 694H573Z" />
<glyph unicode="6" glyph-name="six" horiz-adv-x="480" d="M561 528H423Q442 614 377 614Q324 614 297 569T250 434L243 399H245Q298 460 391 460Q481 460 510 401T517 239Q462 -14 234 -14Q177 -14 139 4T84 52T63 126T64 215T81 317Q90 359 95 383T111 446T131
508T155 562T186 611T224 650T272 682T331 700T402 708Q442 708 473 699T530 669T562 614T561 528ZM212 220Q196 159 205 120T261 80Q309 80 331 115T369 220Q384 292 373 323T319 354Q276 354 252 323T212 220Z" />
<glyph unicode="7" glyph-name="seven" horiz-adv-x="480" d="M170 694H606L582 584Q473 465 388 312T250 0H99Q210 327 441 570H143L170 694Z" />
<glyph unicode="8" glyph-name="eight" horiz-adv-x="480" d="M57 200Q71 269 112 316T214 375V377Q164 391 148 430T141 513Q183 708 390 708Q599 708 557 513Q547 469 514 430T426 377V375Q481 363 502 316T509 200Q503 172 493 147T462 90T413 38T339 1T237
-14T142 1T83 38T56 90T49 146T57 200ZM280 517Q270 469 283 444T329 418T385 443T420 517Q440 614 371 614Q300 614 280 517ZM226 324T201 202T257 80Q340 80 365 202T309 324Q226 324 201 202Z" />
<glyph unicode="9" glyph-name="nine" horiz-adv-x="480" d="M66 165H204Q186 80 251 80Q304 80 331 125T377 260L384 294H382Q330 234 237 234Q147 234 118 293T111 455Q164 708 393 708Q450 708 488 690T543 642T565 568T564 479T546 377Q534 322 527 291T505
213T475 138T436 78T384 28T315 -2T225 -14Q139 -14 93 28T66 165ZM259 474Q243 402 254 371T308 340Q351 340 375 371T416 474Q432 535 423 574T367 614Q319 614 297 579T259 474Z" />
<glyph unicode=":" glyph-name="colon" horiz-adv-x="240" d="M54 0L87 156H219L186 0H54ZM132 365L165 521H297L264 365H132Z" />
<glyph unicode=";" glyph-name="semicolon" horiz-adv-x="240" d="M87 156H219L192 26Q173 -62 135 -110T19 -165L34 -95Q60 -91 78 -69T103 -16L106 0H54L87 156ZM165 521H297L264 365H132L165 521Z" />
<glyph unicode="&lt;" glyph-name="less" horiz-adv-x="600" d="M90 200L112 306L662 514L636 390L269 253L578 116L551 -8L90 200Z" />
<glyph unicode="=" glyph-name="equal" horiz-adv-x="600" d="M111 300L137 424H643L617 300H111ZM64 82L91 206H597L570 82H64Z" />
<glyph unicode="&gt;" glyph-name="greater" horiz-adv-x="600" d="M45 -8L72 116L439 253L130 390L156 514L618 306L596 200L45 -8Z" />
<glyph unicode="?" glyph-name="question" horiz-adv-x="481" d="M273 493H141L146 516Q165 609 228 665T387 722Q490 722 533 671T557 529Q540 444 461 373L412 328Q378 297 362 274T338 213L335 198H211L219 237Q230 287 251 321T315 394L362 437Q409 480 422
543Q430 582 418 605T372 628Q302 628 278 518L273 493ZM190 132H328L300 0H162L190 132Z" />
<glyph unicode="@" glyph-name="at" horiz-adv-x="800" d="M368 326Q361 292 376 269T422 245Q471 245 513 285T565 373Q572 404 555 426T506 449Q460 449 419 410T368 326ZM626 488L650 541H738L627 291Q618 270 612 250Q608 230 628 230Q662 230 708 280T769
404Q790 502 725 568T552 634Q437 634 339 550T217 356Q192 243 259 162T441 80Q554 80 672 144H761Q616 -14 397 -14Q243 -14 158 94T105 357Q137 511 269 619T555 728Q655 728 731 691T844 584T861 425Q845 351 803 292T712 202T621 155T550 139Q521 139 507
152T496 192H494Q433 139 363 139Q306 139 272 186T253 309Q274 406 349 480T519 555Q599 555 626 488Z" />
<glyph unicode="A" glyph-name="A" horiz-adv-x="556" d="M0 0L341 714H519L556 0H406L405 151H215L150 0H0ZM402 590L265 269H405L404 590H402Z" />
<glyph unicode="B" glyph-name="B" horiz-adv-x="556" d="M50 0L202 714H443Q645 714 607 533Q595 474 558 433T466 377V375Q524 367 549 323T560 209Q541 116 476 58T293 0H50ZM323 608L283 421H324Q384 421 416 443T459 515Q470 565 450 586T375 608H323ZM262
321L217 106H273Q389 106 411 214Q434 321 324 321H262Z" />
<glyph unicode="C" glyph-name="C" horiz-adv-x="537" d="M600 473H456Q473 551 461 586T401 622Q348 622 317 563T253 347Q231 241 230 185T242 110T291 92Q335 92 365 129T419 273H563Q549 210 530 163T479 73T395 9T275 -14Q212 -14 171 4T111 53T87 133T89
234T111 357Q126 429 141 479T182 580T239 661T321 709T433 728Q492 728 531 711T587 669T609 607T611 540T600 473Z" />
<glyph unicode="D" glyph-name="D" horiz-adv-x="574" d="M57 0L209 714H445Q541 714 586 671T630 550T607 367Q565 170 494 85T284 0H57ZM330 608L224 106H288Q361 106 395 159T462 363Q474 416 479 451T484 518T474 569T444 597T391 608H330Z" />
<glyph unicode="E" glyph-name="E" horiz-adv-x="481" d="M202 714H601L576 596H321L285 428H525L500 310H260L219 118H484L459 0H50L202 714Z" />
<glyph unicode="F" glyph-name="F" horiz-adv-x="463" d="M50 0L202 714H601L576 596H321L285 428H525L500 310H260L194 0H50Z" />
<glyph unicode="G" glyph-name="G" horiz-adv-x="556" d="M612 502H474Q484 548 471 585T417 622Q365 622 330 564T266 372Q235 243 241 168T306 92Q336 92 371 122T419 206L434 279H339L362 385H595L513 0H407L421 66H419Q353 -14 252 -14Q187 -14 150 9T101
84T94 200T121 365Q161 553 233 640T438 728Q554 728 595 671T612 502Z" />
<glyph unicode="H" glyph-name="H" horiz-adv-x="556" d="M50 0L202 714H346L288 441H456L514 714H658L506 0H362L429 317H261L194 0H50Z" />
<glyph unicode="I" glyph-name="I" horiz-adv-x="258" d="M201 0H57L209 714H353L201 0Z" />
<glyph unicode="J" glyph-name="J" horiz-adv-x="463" d="M427 714H571L462 200Q438 87 375 37T201 -14Q129 -14 91 15T50 91T56 195L63 226H195L190 204Q176 147 185 120T231 92T286 118T318 204L427 714Z" />
<glyph unicode="K" glyph-name="K" horiz-adv-x="537" d="M202 714H346L285 428H287L530 714H686L427 408L556 0H394L309 293L239 212L194 0H50L202 714Z" />
<glyph unicode="L" glyph-name="L" horiz-adv-x="463" d="M449 0H50L202 714H346L219 118H474L449 0Z" />
<glyph unicode="M" glyph-name="M" horiz-adv-x="740" d="M53 0L205 714H419L414 210H416L626 714H839L687 0H555L676 570H674L426 0H314L308 570H306L185 0H53Z" />
<glyph unicode="N" glyph-name="N" horiz-adv-x="574" d="M202 714H368L438 225H440L544 714H676L524 0H360L290 500H288L182 0H50L202 714Z" />
<glyph unicode="O" glyph-name="O" horiz-adv-x="556" d="M111 357Q126 429 141 479T182 580T239 661T321 709T433 728T537 710T597 661T621 581T619 480T597 357Q582 285 567 235T526 134T469 53T387 5T275 -14T171 4T111 53T87 133T89 234T111 357ZM255 357Q239
280 233 234T229 154T249 106T298 92Q359 92 390 148T453 357Q486 500 479 561T410 622T318 565T255 357Z" />
<glyph unicode="P" glyph-name="P" horiz-adv-x="519" d="M50 0L202 714H454Q507 714 542 696T592 647T611 579T604 500Q581 392 510 339T332 285H255L194 0H50ZM323 608L277 391H341Q385 391 416 418T460 498Q484 608 383 608H323Z" />
<glyph unicode="Q" glyph-name="Q" horiz-adv-x="556" d="M541 -11L439 -88L373 0Q350 -8 327 -11Q303 -14 275 -14Q212 -14 171 4T111 53T87 133T89 234T111 357Q126 429 141 479T182 580T239 661T321 709T433 728T537 710T597 661T621 581T619 480T597 357Q552
145 480 67L541 -11ZM255 357Q239 280 233 234T229 154T249 106T298 92Q359 92 390 148T453 357Q486 500 479 561T410 622T318 565T255 357Z" />
<glyph unicode="R" glyph-name="R" horiz-adv-x="556" d="M323 608L279 402H339Q448 402 470 509Q491 608 391 608H323ZM50 0L202 714H468Q558 714 598 667T619 530Q586 379 462 354V352Q531 343 543 295T530 134Q518 71 518 44T535 6L534 0H378Q367 23 376 75L401
212Q417 302 335 302H258L194 0H50Z" />
<glyph unicode="S" glyph-name="S" horiz-adv-x="519" d="M69 223H213L209 202Q198 147 212 120T281 92Q317 92 347 115T385 180Q395 227 373 251T283 302Q191 336 158 384T142 518Q164 621 234 674T408 728Q510 728 559 681T588 536L584 516H446Q468 622 390
622Q307 622 291 539Q283 504 293 483T344 442L445 394Q516 360 535 317T541 205Q493 -14 246 -14Q127 -14 84 39T63 194L69 223Z" />
<glyph unicode="T" glyph-name="T" horiz-adv-x="480" d="M164 714H620L595 596H439L312 0H168L295 596H139L164 714Z" />
<glyph unicode="U" glyph-name="U" horiz-adv-x="538" d="M193 714H337L231 216Q216 163 229 128T289 92T361 124T399 216L505 714H649L543 216Q494 -14 266 -14Q235 -14 210 -10T159 3T117 29T89 71T78 132T87 216L193 714Z" />
<glyph unicode="V" glyph-name="V" horiz-adv-x="519" d="M155 714H309L298 186H301L519 714H668L352 0H167L155 714Z" />
<glyph unicode="W" glyph-name="W" horiz-adv-x="760" d="M138 0L160 714H298L265 186H267L463 714H601L573 186H575L766 714H904L622 0H461L491 518H489L299 0H138Z" />
<glyph unicode="X" glyph-name="X" horiz-adv-x="537" d="M261 361L172 714H331L374 483L514 714H671L430 361L531 0H369L317 242L164 0H6L261 361Z" />
<glyph unicode="Y" glyph-name="Y" horiz-adv-x="520" d="M155 714H317L352 438H354L513 714H669L392 281L332 0H188L248 281L155 714Z" />
<glyph unicode="Z" glyph-name="Z" horiz-adv-x="481" d="M24 0L46 105L414 596H169L194 714H605L582 605L211 118H482L457 0H24Z" />
<glyph unicode="[" glyph-name="bracketleft" horiz-adv-x="315" d="M41 -184L232 714H461L440 614H335L186 -84H291L270 -184H41Z" />
<glyph unicode="\" glyph-name="backslash" horiz-adv-x="332" d="M220 -14L152 728H264L332 -14H220Z" />
<glyph unicode="]" glyph-name="bracketright" horiz-adv-x="315" d="M-33 -184L-12 -84H93L242 614H137L158 714H387L196 -184H-33Z" />
<glyph unicode="^" glyph-name="asciicircum" horiz-adv-x="600" d="M246 309H122L392 694H504L610 309H486L418 556L246 309Z" />
<glyph unicode="_" glyph-name="underscore" horiz-adv-x="500" d="M473 -125H-27L-16 -75H484L473 -125Z" />
<glyph unicode="`" glyph-name="grave" horiz-adv-x="222" d="M304 601H210L142 745H280L304 601Z" />
<glyph unicode="a" glyph-name="a" horiz-adv-x="481" d="M248 373H124L127 386Q145 473 205 512T351 552Q465 552 497 511T511 387L451 104Q437 40 446 0H314Q309 17 309 56H307Q275 16 241 1T155 -14Q89 -14 67 32T58 140Q73 214 112 251T229 308L312 329Q344
337 359 351T380 392Q394 458 330 458Q299 458 279 439T251 388L248 373ZM332 163L354 269Q324 250 289 242Q246 233 224 212T193 155Q177 80 229 80Q261 80 292 101T332 163Z" />
<glyph unicode="b" glyph-name="b" horiz-adv-x="500" d="M241 269Q228 206 226 170T235 113T277 92Q320 92 343 133T386 269Q407 357 401 401T352 446T285 405T241 269ZM46 0L198 714H336L288 488H290Q347 552 419 552Q505 552 530 486T524 269Q493 120 439 53T299
-14Q219 -14 192 57H190L178 0H46Z" />
<glyph unicode="c" glyph-name="c" horiz-adv-x="463" d="M510 344H378Q401 452 339 452Q291 452 267 410T221 268Q206 197 204 159T212 101T255 80Q289 80 312 110T349 206H481Q458 97 397 42T229 -14T86 49T83 269Q116 425 186 488T361 552Q455 552 493 497T510 344Z" />
<glyph unicode="d" glyph-name="d" horiz-adv-x="500" d="M228 269Q207 181 213 137T263 92T329 133T373 269Q383 316 386 346T388 401T373 435T338 446Q295 446 272 405T228 269ZM322 0L334 57H332Q274 -14 195 -14Q110 -14 85 52T90 269Q122 418 176 485T315
552Q388 552 418 488H420L468 714H606L454 0H322Z" />
<glyph unicode="e" glyph-name="e" horiz-adv-x="463" d="M490 248H217L208 205Q195 158 204 119T249 80Q282 80 304 104T343 181H467Q419 -14 231 -14Q189 -14 159 -5T110 19T81 57T67 104T66 159T73 215T84 274Q97 335 114 379T161 466T241 530T357 552Q435
552 472 518T511 423T496 279L490 248ZM234 330H375Q389 392 381 425T332 458Q294 458 271 427T239 351L234 330Z" />
<glyph unicode="f" glyph-name="f" horiz-adv-x="296" d="M76 0L170 444H100L120 538H190L203 599Q218 669 261 698T375 728Q412 728 448 725L427 627Q418 628 400 628Q371 628 357 618T338 585L328 538H408L388 444H308L214 0H76Z" />
<glyph unicode="g" glyph-name="g" horiz-adv-x="500" d="M431 538H563L455 27Q432 -81 369 -132T186 -184Q98 -184 59 -147T33 -40H165Q161 -67 178 -81Q196 -96 221 -96Q298 -96 317 1L332 72H330Q271 6 201 6Q117 6 91 68T94 278Q103 321 113 355T142 428T184
492T242 535T321 552Q398 552 417 478H419L431 538ZM227 252Q218 210 217 182T227 133T266 112Q307 112 332 152T374 266Q395 364 388 405T340 446Q296 446 273 405T227 252Z" />
<glyph unicode="h" glyph-name="h" horiz-adv-x="500" d="M46 0L198 714H336L287 483H289Q342 552 434 552Q571 552 539 399L454 0H316L395 371Q403 411 393 428T352 446Q279 446 260 357L184 0H46Z" />
<glyph unicode="i" glyph-name="i" horiz-adv-x="240" d="M51 0L165 538H303L189 0H51ZM179 604L204 722H342L317 604H179Z" />
<glyph unicode="j" glyph-name="j" horiz-adv-x="240" d="M53 10L165 538H303L181 -37Q166 -108 125 -142T-6 -176Q-22 -176 -62 -174L-41 -74Q-34 -76 -19 -76Q16 -76 29 -57T53 10ZM179 604L204 722H342L317 604H179Z" />
<glyph unicode="k" glyph-name="k" horiz-adv-x="500" d="M203 714H341L261 337H263L444 538H596L396 326L505 0H353L285 221L222 157L189 0H51L203 714Z" />
<glyph unicode="l" glyph-name="l" horiz-adv-x="240" d="M51 0L203 714H341L189 0H51Z" />
<glyph unicode="m" glyph-name="m" horiz-adv-x="758" d="M46 0L160 538H292L281 483H283Q346 552 433 552Q481 552 509 530T539 466H541Q591 552 695 552Q829 552 795 391L712 0H574L654 376Q668 446 615 446Q581 446 557 423T523 354L448 0H310L390 376Q404
446 351 446Q317 446 293 423T259 354L184 0H46Z" />
<glyph unicode="n" glyph-name="n" horiz-adv-x="500" d="M46 0L160 538H292L279 475H281Q339 552 434 552Q571 552 539 399L454 0H316L395 371Q403 411 393 428T352 446Q279 446 260 357L184 0H46Z" />
<glyph unicode="o" glyph-name="o" horiz-adv-x="480" d="M85 269Q115 412 178 482T357 552Q439 553 479 522T524 427T509 269Q479 126 416 56T237 -14Q155 -15 115 16T70 111T85 269ZM223 269Q213 221 209 192T206 135T219 93T257 80Q298 80 324 123T371 269Q386
337 387 378T377 438T337 458Q291 458 268 413T223 269Z" />
<glyph unicode="p" glyph-name="p" horiz-adv-x="500" d="M241 269Q228 206 226 170T235 113T277 92Q320 92 343 133T386 269Q407 357 401 401T352 446T285 405T241 269ZM9 -176L160 538H292L280 481H282Q340 552 419 552Q505 552 530 486T524 269Q493 120 439
53T299 -14Q225 -14 197 50H195L147 -176H9Z" />
<glyph unicode="q" glyph-name="q" horiz-adv-x="500" d="M373 269Q383 316 386 346T388 401T373 435T338 446Q295 446 272 405T228 269Q207 181 213 137T263 92T329 133T373 269ZM279 -176L327 50H325Q267 -14 195 -14Q110 -14 85 52T90 269Q122 418 176 485T315
552Q395 552 422 481H424L436 538H568L417 -176H279Z" />
<glyph unicode="r" glyph-name="r" horiz-adv-x="333" d="M46 0L160 538H292L277 466H279Q344 552 421 552Q430 552 446 550L418 418Q390 420 375 420Q334 420 299 397T253 323L184 0H46Z" />
<glyph unicode="s" glyph-name="s" horiz-adv-x="444" d="M60 176H184L181 158Q173 122 187 101T236 80Q305 80 320 144Q328 186 283 205L193 240Q87 281 110 390Q125 462 183 507T342 552Q434 552 471 513T494 399L489 377H365Q374 418 364 438Q355 458 321 458Q293
458 272 443T244 400Q234 357 291 337L368 309Q428 287 447 252T454 155Q437 73 373 30T218 -14Q108 -14 73 29T56 157L60 176Z" />
<glyph unicode="t" glyph-name="t" horiz-adv-x="296" d="M190 538L223 692H361L328 538H408L388 444H308L247 153Q239 122 246 108T283 94Q296 94 314 96L294 0Q232 -6 203 -6Q124 -6 105 24T105 136L170 444H100L120 538H190Z" />
<glyph unicode="u" glyph-name="u" horiz-adv-x="500" d="M322 0L335 63H333Q275 -14 180 -14Q43 -14 76 139L160 538H298L219 167Q211 127 221 110T263 92Q336 92 354 181L430 538H568L454 0H322Z" />
<glyph unicode="v" glyph-name="v" horiz-adv-x="444" d="M261 153L415 538H553L304 0H144L119 538H263L259 153H261Z" />
<glyph unicode="w" glyph-name="w" horiz-adv-x="704" d="M124 0L121 538H259L241 156H243L391 538H541L531 156H533L679 538H811L581 0H424L434 382H432L284 0H124Z" />
<glyph unicode="x" glyph-name="x" horiz-adv-x="462" d="M311 376L419 538H563L368 277L455 0H311L268 176L151 0H7L212 277L127 538H271L311 376Z" />
<glyph unicode="y" glyph-name="y" horiz-adv-x="444" d="M9 -176L30 -73Q48 -76 66 -76Q134 -76 156 0L119 538H263L264 166H266L415 538H553L317 36Q271 -60 239 -103T170 -161T65 -176H9Z" />
<glyph unicode="z" glyph-name="z" horiz-adv-x="426" d="M24 0L47 106L330 426H125L148 538H516L494 432L211 112H426L402 0H24Z" />
<glyph unicode="{" glyph-name="braceleft" horiz-adv-x="315" d="M78 224L95 306Q121 306 146 329T178 387L219 580Q233 644 267 679T352 714H441L420 614H390Q350 614 335 542L300 376Q290 332 264 302T205 266L204 264Q235 258 248 228T253 154L217 -12Q202
-84 241 -84H271L250 -184H161Q110 -184 91 -149T85 -50L126 143Q133 177 119 200T78 224Z" />
<glyph unicode="|" glyph-name="bar" horiz-adv-x="425" d="M237 813H338V-271H237V813Z" />
<glyph unicode="}" glyph-name="braceright" horiz-adv-x="315" d="M-13 -184L8 -84H38Q77 -84 92 -12L128 154Q137 198 163 228T223 264L224 266Q192 272 179 302T175 376L210 542Q225 614 187 614H157L178 714H267Q318 714 337 679T342 580L301 387Q294 353
309 330T350 306L333 224Q307 224 282 201T249 143L208 -50Q194 -114 161 -149T76 -184H-13Z" />
<glyph unicode="~" glyph-name="asciitilde" horiz-adv-x="600" d="M569 349L583 243Q519 157 441 157Q389 157 331 191Q271 225 243 225Q216 225 185 203T138 157L125 263Q189 349 266 349Q319 349 369 320Q409 297 427 289T465 281Q492 281 523 304T569 349Z" />
</font>
</defs>
</svg>
