<?xml version="1.0" standalone="no"?> <!DOCTYPE svg PUBLIC "-//W3C//DTD SVG 1.0//EN" "http://www.w3.org/TR/2001/REC-SVG-20010904/DTD/svg10.dtd" > <svg xmlns="http://www.w3.org/2000/svg" width="100%" height="100%">
<defs >
<font id="HelveticaNeueLTStd-Cn" horiz-adv-x="371" ><font-face
    font-family="HelveticaNeueLT Std Cn"
    units-per-em="1000"
    panose-1="2 11 5 6 3 5 2 3 2 4"
    ascent="714"
    descent="-286"
    alphabetic="0" />
<missing-glyph horiz-adv-x="500" d="M0 0V700H500V0H0ZM250 395L420 650H80L250 395ZM280 350L450 95V605L280 350ZM80 50H420L250 305L80 50ZM50 605V95L220 350L50 605Z" />
<glyph unicode=" " glyph-name="space" horiz-adv-x="240" />
<glyph unicode="!" glyph-name="exclam" horiz-adv-x="258" d="M99 186L83 714H175L159 186H99ZM83 0V96H175V0H83Z" />
<glyph unicode="&quot;" glyph-name="quotedbl" horiz-adv-x="407" d="M87 460V714H153V460H87ZM254 460V714H320V460H254Z" />
<glyph unicode="#" glyph-name="numbersign" horiz-adv-x="480" d="M79 0L105 205H23V271H113L132 425H45V491H141L166 694H232L207 491H313L338 694H404L379 491H457V425H370L351 271H434V205H343L317 0H251L277 205H171L145 0H79ZM198 425L179 271H285L304 425H198Z" />
<glyph unicode="$" glyph-name="dollar" horiz-adv-x="480" d="M259 306V58Q306 62 336 95T367 179T339 258T259 306ZM217 405V636Q122 624 122 525Q122 478 146 451T217 405ZM217 708V766H259V708Q436 699 439 514H351Q351 627 259 636V391Q265 389 286 382T315
373T342 362T369 349T393 335T415 316T432 294T447 266T455 233T459 193Q459 90 401 41T259 -14V-108H217V-14Q109 -10 65 47T21 218H109Q109 191 110 174T117 134T134 97T166 72T217 58V320Q186 330 171 335T130 353T89 378T59 410T37 456T30 516Q30 544 37 572T62
631T120 683T217 708Z" />
<glyph unicode="%" glyph-name="percent" horiz-adv-x="759" d="M150 378T177 378T217 397T233 442T236 516T234 590T218 634T177 654T137 635T121 590T118 516T120 442T136 398ZM186 -14L496 708H566L256 -14H186ZM555 40T582 40T622 59T638 104T641 178T639
252T623 296T582 316T542 297T526 252T523 178T525 104T541 60ZM212 324T177 324T118 335T80 362T58 406T48 457T46 516T48 574T58 626T79 669T117 697T177 708T236 697T274 670T296 626T306 575T308 516T306 458T296 406T275 363T237 335ZM617 -14T582 -14T523
-3T485 24T463 68T453 119T451 178T453 236T463 288T484 331T522 359T582 370T641 359T679 332T701 288T711 237T713 178T711 120T701 68T680 25T642 -3Z" />
<glyph unicode="&amp;" glyph-name="ampersand" horiz-adv-x="556" d="M238 453L257 471Q281 494 289 503T309 534T321 578Q321 609 301 628T249 648T198 629T178 578Q178 542 221 477L238 453ZM372 127L215 354Q113 293 113 191Q113 128 151 93T244 58Q312 58
372 127ZM275 400L416 198Q437 253 444 337H522Q522 296 503 225T464 129L556 0H461L413 67Q368 24 330 5T237 -14Q176 -14 132 7T66 61T35 124T25 184Q25 294 122 369L174 408L152 444Q135 471 126 486T109 526T100 574Q100 636 143 675T248 714Q399 714 399 578Q399
531 374 496T301 422L275 400Z" />
<glyph unicode="&apos;" glyph-name="quotesingle" horiz-adv-x="240" d="M87 460V714H153V460H87Z" />
<glyph unicode="(" glyph-name="parenleft" horiz-adv-x="241" d="M189 714H237Q127 533 127 265Q127 29 237 -184H189Q119 -88 81 29T43 265Q43 514 189 714Z" />
<glyph unicode=")" glyph-name="parenright" horiz-adv-x="241" d="M52 -184H4Q114 -3 114 265Q114 501 4 714H52Q122 618 160 501T198 265Q198 16 52 -184Z" />
<glyph unicode="*" glyph-name="asterisk" horiz-adv-x="352" d="M146 595V714H206V595L313 636L335 578L222 544L298 450L248 413L176 515L104 413L54 450L130 544L17 578L39 636L146 595Z" />
<glyph unicode="+" glyph-name="plus" horiz-adv-x="600" d="M267 0V220H47V286H267V506H333V286H553V220H333V0H267Z" />
<glyph unicode="," glyph-name="comma" horiz-adv-x="240" d="M74 0V106H166V19Q166 -15 164 -37T153 -83T125 -124T74 -148V-101Q100 -89 109 -72T118 -24V0H74Z" />
<glyph unicode="-" glyph-name="hyphen" horiz-adv-x="352" d="M54 245V323H298V245H54Z" />
<glyph unicode="." glyph-name="period" horiz-adv-x="240" d="M74 0V106H166V0H74Z" />
<glyph unicode="/" glyph-name="slash" horiz-adv-x="278" d="M-10 -14L222 728H288L56 -14H-10Z" />
<glyph unicode="0" glyph-name="zero" horiz-adv-x="480" d="M286 -14T240 -14T159 0T103 42T68 101T48 177T40 258T38 344Q38 391 40 426T48 507T67 585T102 647T159 692T240 708T321 694T377 652T412 592T432 515T440 432T442 344Q442 298 440 265T432 186T413
108T378 47T321 2ZM126 344Q126 300 127 270T131 203T142 141T162 95T194 63T240 52T286 62T318 95T337 141T348 202T353 270T354 344Q354 390 353 421T349 490T338 552T318 598T286 631T240 642T195 632T163 599T143 552T132 490T127 421T126 344Z" />
<glyph unicode="1" glyph-name="one" horiz-adv-x="480" d="M67 532V592Q99 594 119 596T165 606T205 625T230 658T242 708H302V0H218V532H67Z" />
<glyph unicode="2" glyph-name="two" horiz-adv-x="480" d="M438 78V0H42Q42 158 195 290L253 339Q301 381 324 418T347 509Q347 561 322 598T244 636Q132 636 132 483H44Q44 708 245 708Q292 708 327 694T383 660T415 612T431 563T435 519Q435 443 406 393T311
286L211 199Q148 146 134 78H438Z" />
<glyph unicode="3" glyph-name="three" horiz-adv-x="480" d="M180 333V399H224Q278 399 305 433T332 524Q332 642 240 642Q138 642 138 504H50Q50 599 96 653T238 708Q291 708 328 691T385 645T412 587T420 524Q420 468 392 427T310 372V370Q441 344 441 205Q441
105 390 46T240 -14Q186 -14 147 4T87 46T56 101T42 150T39 183V192H127Q127 136 155 94T240 52Q353 52 353 198Q353 262 321 297T225 333H180Z" />
<glyph unicode="4" glyph-name="four" horiz-adv-x="480" d="M284 570L106 243H286V570H284ZM30 250L286 708H370V243H450V171H370V0H286V171H30V250Z" />
<glyph unicode="5" glyph-name="five" horiz-adv-x="480" d="M58 331L97 694H413V616H164L136 411L138 409Q182 462 262 462Q343 462 391 401T440 229Q440 122 390 54T234 -14Q186 -14 150 1T93 38T61 88T44 139T40 182H128Q128 164 132 146T146 104T180 67T236
52Q271 52 296 70T332 118T347 176T352 236Q352 303 324 349T234 396Q193 396 164 370T134 327L58 331Z" />
<glyph unicode="6" glyph-name="six" horiz-adv-x="480" d="M429 538H341Q341 584 317 613T248 642Q215 642 190 623T153 579T134 520T125 466T123 429V373H125Q140 401 174 426T260 452Q350 452 397 392T445 228Q445 121 393 54T245 -14Q198 -14 162 0T103 41T67
98T46 170T37 245T35 322Q35 372 37 408T45 493T65 577T103 643T163 691T250 708Q307 708 346 687T402 634T423 580T429 538ZM133 216Q133 174 142 140T177 79T245 52T312 78T348 139T357 216Q357 380 245 380T133 216Z" />
<glyph unicode="7" glyph-name="seven" horiz-adv-x="480" d="M38 616V694H442V621Q359 512 303 378Q222 183 206 0H108Q128 164 194 322Q258 480 362 616H38Z" />
<glyph unicode="8" glyph-name="eight" horiz-adv-x="480" d="M37 195Q37 336 162 377Q109 399 84 435T59 528Q59 613 107 660T240 708T372 661T421 528Q421 471 396 435T318 377Q443 336 443 195Q443 157 433 123T402 56T339 5T240 -14T142 5T79 56T47 122T37
195ZM240 642Q193 642 170 611T147 526Q147 474 170 442T240 410Q286 410 309 442T333 526Q333 579 310 610T240 642ZM125 264T125 198T153 92T240 52T327 92T355 198T327 304T240 344T153 304Z" />
<glyph unicode="9" glyph-name="nine" horiz-adv-x="480" d="M51 156H139Q139 111 163 82T232 52Q265 52 290 71T327 116T346 175T355 228T357 265V321H355Q340 293 306 268T220 242Q130 242 83 302T35 466Q35 573 87 640T235 708Q282 708 318 694T377 653T413
596T434 524T443 448T445 372Q445 322 443 286T435 201T415 117T377 51T317 3T230 -14Q173 -14 134 7T78 60T57 114T51 156ZM347 478Q347 545 321 593T235 642T149 594T123 478Q123 314 235 314T347 478Z" />
<glyph unicode=":" glyph-name="colon" horiz-adv-x="240" d="M74 400V506H166V400H74ZM74 0V106H166V0H74Z" />
<glyph unicode=";" glyph-name="semicolon" horiz-adv-x="240" d="M74 0V106H166V19Q166 -15 164 -37T153 -83T125 -124T74 -148V-101Q100 -89 109 -72T118 -24V0H74ZM74 400V506H166V400H74Z" />
<glyph unicode="&lt;" glyph-name="less" horiz-adv-x="600" d="M47 223V283L553 514V448L125 253L553 58V-8L47 223Z" />
<glyph unicode="=" glyph-name="equal" horiz-adv-x="600" d="M47 322V388H553V322H47ZM47 118V184H553V118H47Z" />
<glyph unicode="&gt;" glyph-name="greater" horiz-adv-x="600" d="M47 -8V58L475 253L47 448V514L553 283V223L47 -8Z" />
<glyph unicode="?" glyph-name="question" horiz-adv-x="444" d="M119 504H35Q35 599 82 660T221 722Q309 722 359 670T409 534Q409 454 359 393Q354 387 320 349T281 305Q249 264 249 205V186H171Q171 273 190 309Q200 328 219 352T261 402T291 437Q321 476 321
539Q321 586 296 618T224 650Q119 650 119 504ZM165 0V96H257V0H165Z" />
<glyph unicode="@" glyph-name="at" horiz-adv-x="800" d="M240 293Q240 251 266 224T334 197Q398 197 443 270T489 409Q489 446 467 477T408 509Q339 509 290 439T240 293ZM524 487L546 550H602L518 268Q509 237 509 223Q509 212 516 205T538 197Q605 197 655
263T705 415Q705 527 618 597T400 668Q271 668 183 578T95 357Q95 224 183 135T400 46Q589 46 671 157H734Q686 74 601 30T400 -14Q246 -14 138 94T29 357T137 619T400 728Q562 728 666 641T771 419Q771 337 731 271T632 171T513 137Q450 137 443 196H441Q384 137
316 137Q259 137 217 179T174 287Q174 396 240 482T408 569Q494 569 522 487H524Z" />
<glyph unicode="A" glyph-name="A" horiz-adv-x="500" d="M-8 0L198 714H316L508 0H416L365 196H137L84 0H-8ZM254 613L155 268H347L256 613H254Z" />
<glyph unicode="B" glyph-name="B" horiz-adv-x="519" d="M146 340V72H266Q331 72 361 109T391 204Q391 274 352 307T251 340H146ZM58 0V714H277Q356 714 408 671T460 531Q460 481 432 439T356 382V380Q420 365 451 319T483 204Q483 98 425 49T252 0H58ZM146 642V406H247Q261
406 274 407T305 416T336 435T358 470T368 525Q368 642 245 642H146Z" />
<glyph unicode="C" glyph-name="C" horiz-adv-x="519" d="M403 245H495Q488 130 437 58T278 -14Q219 -14 176 8T109 64T71 149T52 248T48 357Q48 417 53 465T72 565T111 650T178 706T278 728Q483 728 489 506H397Q393 656 278 656Q234 656 206 634T163 567T145
475T140 357T144 240T163 147T205 80T278 58Q316 58 342 74T380 120T397 178T403 245Z" />
<glyph unicode="D" glyph-name="D" horiz-adv-x="556" d="M155 642V72H247Q291 72 323 90T372 134T400 201T413 276T416 356Q416 397 415 425T408 490T392 551T362 598T315 631T247 642H155ZM67 0V714H258Q312 714 353 702T421 665T466 610T493 537T505 453T508
357Q508 0 267 0H67Z" />
<glyph unicode="E" glyph-name="E" horiz-adv-x="463" d="M58 0V714H427V636H146V412H411V334H146V78H439V0H58Z" />
<glyph unicode="F" glyph-name="F" horiz-adv-x="444" d="M58 0V714H427V636H146V412H411V334H146V0H58Z" />
<glyph unicode="G" glyph-name="G" horiz-adv-x="537" d="M489 516H397Q390 656 278 656Q234 656 206 634T163 567T145 475T140 357T144 240T163 147T205 80T278 58Q313 58 338 74T377 114T397 174T407 237T409 299H268V371H489V0H423V97H421Q406 49 365 18T267
-14Q213 -14 173 7T110 61T72 144T53 244T48 357Q48 417 53 465T72 565T111 650T178 706T278 728Q320 728 354 718T409 693T447 656T470 615T482 574T488 540T489 516Z" />
<glyph unicode="H" glyph-name="H" horiz-adv-x="537" d="M479 714V0H391V344H146V0H58V714H146V422H391V714H479Z" />
<glyph unicode="I" glyph-name="I" horiz-adv-x="204" d="M58 0V714H146V0H58Z" />
<glyph unicode="J" glyph-name="J" horiz-adv-x="426" d="M368 714V205Q368 99 330 43T189 -14Q105 -14 64 32T22 149V208H106V156Q106 58 188 58Q244 58 262 92T280 208V714H368Z" />
<glyph unicode="K" glyph-name="K" horiz-adv-x="500" d="M58 0V714H146V368H148L395 714H493L277 416L511 0H413L220 344L146 243V0H58Z" />
<glyph unicode="L" glyph-name="L" horiz-adv-x="444" d="M58 0V714H146V78H436V0H58Z" />
<glyph unicode="M" glyph-name="M" horiz-adv-x="704" d="M60 0V714H208L351 148H353L496 714H644V0H556V624H554L396 0H308L150 624H148V0H60Z" />
<glyph unicode="N" glyph-name="N" horiz-adv-x="556" d="M58 0V714H172L408 118H410V714H498V0H377L148 578H146V0H58Z" />
<glyph unicode="O" glyph-name="O" horiz-adv-x="556" d="M221 728T278 728T377 706T444 650T483 565T503 466T508 357T503 249T484 149T445 64T378 8T278 -14T179 8T112 64T73 149T53 248T48 357T53 465T72 565T111 650T178 706ZM322 656T278 656T206 634T163
567T145 475T140 357T144 240T163 147T205 80T278 58T350 80T393 147T411 239T416 357T412 474T393 567T351 634Z" />
<glyph unicode="P" glyph-name="P" horiz-adv-x="481" d="M58 0V714H240Q260 714 272 714T310 709T353 698T393 676T428 639T451 585T461 509Q461 411 405 357T255 302H146V0H58ZM146 642V374H251Q302 374 335 409T369 513Q369 642 245 642H146Z" />
<glyph unicode="Q" glyph-name="Q" horiz-adv-x="556" d="M473 -43L401 22Q352 -14 278 -14Q221 -14 179 8T112 64T73 149T53 248T48 357T53 465T72 565T111 650T178 706T278 728T377 706T444 650T483 565T503 466T508 357Q508 164 450 75L522 9L473 -43ZM343
75L274 137L323 191L389 131Q416 197 416 357Q416 427 412 474T393 567T351 634T278 656T206 634T163 567T145 475T140 357T144 240T163 147T205 80T278 58Q317 58 343 75Z" />
<glyph unicode="R" glyph-name="R" horiz-adv-x="519" d="M58 0V714H289Q374 714 423 667T472 535Q472 469 446 419T362 355V353Q407 348 433 315T463 234L469 112Q472 57 481 34T507 0H401Q382 19 377 103L371 214Q368 260 350 284T313 313T265 318H146V0H58ZM146
642V390H233Q256 390 269 391T306 399T344 419T369 461T380 528Q380 581 346 611T251 642H146Z" />
<glyph unicode="S" glyph-name="S" horiz-adv-x="500" d="M449 529H361Q361 656 250 656Q194 656 163 626T132 540Q132 499 150 472T199 430T264 404T336 379T402 345T450 288T469 198Q469 139 449 96T396 30T325 -3T247 -14Q127 -14 79 44T31 224H119Q119 194
120 176T129 132T150 93T190 69T253 58Q306 58 341 93T377 184Q377 225 359 253T310 296T244 322T173 348T107 383T59 440T40 531Q40 554 44 577T61 628T97 678T158 713T249 728Q446 728 449 529Z" />
<glyph unicode="T" glyph-name="T" horiz-adv-x="463" d="M275 636V0H187V636H8V714H455V636H275Z" />
<glyph unicode="U" glyph-name="U" horiz-adv-x="519" d="M50 212V714H138V212Q138 132 166 95T259 58Q327 58 354 95T381 212V714H469V212Q469 107 416 47T259 -14Q50 -14 50 212Z" />
<glyph unicode="V" glyph-name="V" horiz-adv-x="462" d="M172 0L-2 714H90L230 101H232L372 714H464L284 0H172Z" />
<glyph unicode="W" glyph-name="W" horiz-adv-x="722" d="M150 0L8 714H96L205 130H207L308 714H414L515 130H517L626 714H714L567 0H460L362 578H360L257 0H150Z" />
<glyph unicode="X" glyph-name="X" horiz-adv-x="481" d="M192 363L16 714H114L244 447L375 714H467L289 363L479 0H381L239 286L94 0H2L192 363Z" />
<glyph unicode="Y" glyph-name="Y" horiz-adv-x="462" d="M187 280L-2 714H95L231 380L372 714H464L275 280V0H187V280Z" />
<glyph unicode="Z" glyph-name="Z" horiz-adv-x="463" d="M23 0V74L344 636H41V714H436V633L115 78H440V0H23Z" />
<glyph unicode="[" glyph-name="bracketleft" horiz-adv-x="259" d="M78 -184V714H257V648H156V-118H257V-184H78Z" />
<glyph unicode="\" glyph-name="backslash" horiz-adv-x="278" d="M222 -14L-10 728H56L288 -14H222Z" />
<glyph unicode="]" glyph-name="bracketright" horiz-adv-x="259" d="M181 714V-184H2V-118H103V648H2V714H181Z" />
<glyph unicode="^" glyph-name="asciicircum" horiz-adv-x="600" d="M47 261L276 694H324L553 261H487L300 622L113 261H47Z" />
<glyph unicode="_" glyph-name="underscore" horiz-adv-x="500" d="M0 -125V-75H500V-125H0Z" />
<glyph unicode="`" glyph-name="grave" horiz-adv-x="204" d="M-16 752H82L152 610H92L-16 752Z" />
<glyph unicode="a" glyph-name="a" horiz-adv-x="444" d="M126 374H42Q42 466 84 508T222 550Q269 550 301 539T350 513T374 474T384 435T385 396V97Q385 82 386 75T393 61T411 54Q424 54 431 59V-1Q401 -6 382 -6Q366 -6 357 -5T334 2T314 23T306 63H304Q284
28 249 7T175 -14Q102 -14 66 27T29 142Q29 259 130 290L243 324Q273 333 286 344T301 367T304 405Q304 443 282 463T218 484Q126 484 126 379V374ZM301 154V292Q283 273 228 255T158 229Q117 203 117 144Q117 52 193 52Q235 52 268 82T301 154Z" />
<glyph unicode="b" glyph-name="b" horiz-adv-x="463" d="M134 268Q134 206 141 164T174 90T242 58Q297 58 318 112T340 268Q340 372 319 425T242 478Q134 478 134 268ZM55 0V714H139V475H141Q155 509 189 529T265 550Q428 550 428 268Q428 145 385 66T253 -14Q211
-14 179 10T137 66H135V0H55Z" />
<glyph unicode="c" glyph-name="c" horiz-adv-x="426" d="M394 373H310Q310 418 290 451T225 484Q203 484 187 477T154 447T129 379T120 262Q120 232 121 213T127 159T142 105T172 68T222 52Q256 52 276 74T303 124T310 186H394Q394 138 379 96T323 20T218 -14Q121
-14 77 53T32 261Q32 306 36 343T52 420T84 487T140 532T223 550Q265 550 297 538T346 506T375 462T390 416T394 373Z" />
<glyph unicode="d" glyph-name="d" horiz-adv-x="463" d="M123 372T123 268T144 111T221 58Q285 58 307 111T329 268Q329 478 221 478Q166 478 145 425ZM408 714V0H328V66H326Q317 34 285 10T210 -14Q35 -14 35 268T204 550Q241 550 274 530T322 475H324V714H408Z" />
<glyph unicode="e" glyph-name="e" horiz-adv-x="444" d="M128 324H319V353Q319 407 298 445T226 484Q195 484 174 468T144 426T132 381T128 344V324ZM407 258H125Q125 230 125 214T128 169T138 123T155 88T184 61T228 52Q265 52 287 76T314 125T319 176H403Q403
151 395 122T369 61T312 7T223 -14Q126 -14 82 53T37 261Q37 306 41 343T57 420T89 487T145 532T228 550Q275 550 309 534T362 493T391 432T404 364T407 292V258Z" />
<glyph unicode="f" glyph-name="f" horiz-adv-x="259" d="M80 0V470H2V536H80V599Q80 722 196 722H257V650H218Q164 650 164 599V536H256V470H164V0H80Z" />
<glyph unicode="g" glyph-name="g" horiz-adv-x="463" d="M221 478Q166 478 145 425T123 268Q123 72 220 72Q283 72 306 123T329 268Q329 478 221 478ZM408 536V34Q408 -184 226 -184Q64 -184 50 -50H134Q140 -118 220 -118Q251 -118 272 -108T303 -88T318 -56T323
-26T324 2V72H322Q309 39 276 20T201 0Q164 0 135 14T89 54T60 107T43 167T37 223T35 268Q35 347 49 406T104 508T210 550Q252 550 284 526T326 468H328V536H408Z" />
<glyph unicode="h" glyph-name="h" horiz-adv-x="463" d="M55 0V714H139V475H141Q157 507 195 528T270 550Q309 550 337 538T378 510T399 467T407 423T408 380V0H324V370Q324 391 322 405T313 438T289 468T245 478Q205 478 172 451T139 370V0H55Z" />
<glyph unicode="i" glyph-name="i" horiz-adv-x="204" d="M60 0V536H144V0H60ZM60 618V714H144V618H60Z" />
<glyph unicode="j" glyph-name="j" horiz-adv-x="204" d="M144 536V-52Q144 -119 114 -151T16 -184L-23 -181V-109Q7 -112 8 -112Q23 -112 33 -107T49 -96T56 -75T59 -52T60 -22V536H144ZM144 714V618H60V714H144Z" />
<glyph unicode="k" glyph-name="k" horiz-adv-x="444" d="M264 334L455 0H357L208 265L139 181V0H55V714H139V289H141L329 536H427L264 334Z" />
<glyph unicode="l" glyph-name="l" horiz-adv-x="204" d="M60 0V714H144V0H60Z" />
<glyph unicode="m" glyph-name="m" horiz-adv-x="722" d="M63 0V536H143V473H145Q161 509 197 529T275 550Q322 550 350 530T391 465Q410 502 444 526T518 550T586 538T628 510T649 467T658 423T659 380V0H575V370Q575 390 573 405T565 438T543 467T503 478Q466
478 435 452T403 370V0H319V370Q319 390 317 405T309 438T287 467T247 478Q210 478 179 452T147 370V0H63Z" />
<glyph unicode="n" glyph-name="n" horiz-adv-x="463" d="M55 0V536H135V473H137Q153 509 189 529T267 550Q307 550 335 538T377 510T398 467T407 423T408 380V0H324V370Q324 391 322 405T313 438T289 468T245 478Q205 478 172 451T139 370V0H55Z" />
<glyph unicode="o" glyph-name="o" horiz-adv-x="444" d="M29 -14T29 268T222 550T415 268T222 -14ZM220 52Q281 52 304 109T327 268Q327 316 323 351T307 419T274 467T220 484Q189 484 168 467T137 419T122 351T117 268Q117 220 121 185T136 117T168 69T220 52Z" />
<glyph unicode="p" glyph-name="p" horiz-adv-x="463" d="M134 268Q134 58 242 58Q297 58 318 112T340 278Q340 375 319 426T242 478Q178 478 156 425T134 268ZM55 -176V536H135V470H137Q146 502 178 526T253 550Q428 550 428 278Q428 238 424 201T407 123T375
54T325 5T253 -14Q217 -14 186 6T141 61H139V-176H55Z" />
<glyph unicode="q" glyph-name="q" horiz-adv-x="463" d="M329 268Q329 372 307 425T221 478Q166 478 145 427T123 278Q123 167 144 113T221 58Q329 58 329 268ZM324 -176V61H322Q308 27 277 7T210 -14Q160 -14 125 10T70 78T43 170T35 278Q35 550 210 550Q252
550 284 526T326 470H328V536H408V-176H324Z" />
<glyph unicode="r" glyph-name="r" horiz-adv-x="296" d="M55 0V536H139V456H141Q185 550 257 550Q282 550 294 544V462Q262 466 249 466Q211 466 175 433T139 339V0H55Z" />
<glyph unicode="s" glyph-name="s" horiz-adv-x="407" d="M369 379H285Q285 433 268 458T206 484Q119 484 119 402Q119 389 122 378T134 359T149 345T171 333T195 323T223 314T251 305Q283 294 300 286T339 262T372 219T382 154Q382 72 335 29T209 -14Q157 -14
120 1T65 36T38 86T27 134T25 176H109Q109 52 209 52Q227 52 245 57T280 84T298 141Q298 153 296 163T289 181T279 196T265 209T249 219T230 228T210 235T188 243T167 250Q138 260 127 264T94 281T62 307T44 345T35 402Q35 474 83 512T206 550Q251 550 283 538T331
509T356 466T367 422T369 379Z" />
<glyph unicode="t" glyph-name="t" horiz-adv-x="259" d="M80 536V692H164V536H257V470H164V126Q164 93 175 80T219 66Q229 66 256 69V0Q223 -6 188 -6Q126 -6 103 19T80 100V470H2V536H80Z" />
<glyph unicode="u" glyph-name="u" horiz-adv-x="463" d="M408 536V0H328V63H326Q310 27 274 7T196 -14Q156 -14 128 -2T86 26T65 69T56 113T55 156V536H139V166Q139 145 141 131T150 98T174 68T218 58Q258 58 291 85T324 166V536H408Z" />
<glyph unicode="v" glyph-name="v" horiz-adv-x="406" d="M155 0L10 536H102L202 106H204L304 536H396L251 0H155Z" />
<glyph unicode="w" glyph-name="w" horiz-adv-x="648" d="M135 0L10 536H98L184 98H186L277 536H376L465 98H467L550 536H638L511 0H419L325 438H323L233 0H135Z" />
<glyph unicode="x" glyph-name="x" horiz-adv-x="406" d="M153 279L16 536H108L205 345L303 536H395L255 279L400 0H308L201 212L98 0H6L153 279Z" />
<glyph unicode="y" glyph-name="y" horiz-adv-x="406" d="M168 -11L10 536H102L208 106H210L304 536H396L241 -36Q232 -70 224 -90T201 -132T160 -165T98 -176Q79 -176 37 -173V-107Q55 -110 86 -110Q134 -110 152 -58L168 -11Z" />
<glyph unicode="z" glyph-name="z" horiz-adv-x="389" d="M39 464V536H362V466L122 72H360V0H27V66L270 464H39Z" />
<glyph unicode="{" glyph-name="braceleft" horiz-adv-x="259" d="M2 235V295Q36 295 57 325T78 406V584Q78 653 108 683T186 714H257V648H206Q189 648 178 641T163 620T157 595T156 566V394Q156 331 126 301T68 266V264Q96 260 126 230T156 136V-36Q156 -54 157
-65T162 -90T178 -111T206 -118H257V-184H186Q138 -184 108 -154T78 -54V124Q78 175 57 205T2 235Z" />
<glyph unicode="|" glyph-name="bar" horiz-adv-x="222" d="M78 -14V728H144V-14H78Z" />
<glyph unicode="}" glyph-name="braceright" horiz-adv-x="259" d="M257 295V235Q223 235 202 205T181 124V-54Q181 -123 151 -153T73 -184H2V-118H53Q70 -118 81 -111T96 -90T102 -65T103 -36V136Q103 199 133 229T191 264V266Q163 270 133 300T103 394V566Q103
584 102 595T97 620T81 641T53 648H2V714H73Q121 714 151 684T181 584V406Q181 355 202 325T257 295Z" />
<glyph unicode="~" glyph-name="asciitilde" horiz-adv-x="600" d="M98 185L56 231Q75 258 90 275T134 308T192 324T242 319T296 295Q303 291 320 281T348 265T374 254T403 248Q453 248 502 321L544 276Q525 249 510 232T466 198T408 182T358 187T304 211Q297
215 280 225T252 241T226 252T197 258Q147 258 98 185Z" />
</font>
</defs>
</svg>
