<?xml version="1.0" standalone="no"?> <!DOCTYPE svg PUBLIC "-//W3C//DTD SVG 1.0//EN" "http://www.w3.org/TR/2001/REC-SVG-20010904/DTD/svg10.dtd" > <svg xmlns="http://www.w3.org/2000/svg" width="100%" height="100%">
<defs >
<font id="HelveticaNeue-Italic" horiz-adv-x="444" ><font-face
    font-family="Helvetica Neue"
    units-per-em="1000"
    panose-1="2 0 5 3 0 0 0 9 0 4"
    ascent="957"
    descent="-213"
    alphabetic="0" />
<missing-glyph horiz-adv-x="500" d="M58 8H442V504H58V8ZM50 0V512H450V0H50Z" />
<glyph unicode=" " glyph-name="space" horiz-adv-x="278" />
<glyph unicode="!" glyph-name="exclam" horiz-adv-x="259" d="M252 714L205 491L115 183H69L112 491L159 714H252ZM0 0L24 111H135L111 0H0Z" />
<glyph unicode="&quot;" glyph-name="quotedbl" horiz-adv-x="426" d="M286 456V714H354V456H286ZM146 456V714H214V456H146Z" />
<glyph unicode="#" glyph-name="numbersign" horiz-adv-x="556" d="M353 424H231L210 274H332L353 424ZM102 0L131 206H34L43 274H140L161 424H60L69 492H171L200 697H269L240 492H362L391 697H460L431 492H522L513 424H422L401 274H494L485 206H392L363 0H294L323
206H200L171 0H102Z" />
<glyph unicode="$" glyph-name="dollar" horiz-adv-x="556" d="M154 -96L172 -11Q77 4 32 67T-9 234H80Q73 89 188 65L242 334Q201 346 173 359T119 393T79 445T65 519Q65 619 142 680T322 731L335 794H388L374 725Q450 703 496 647T536 503H446Q450 621 359 651L310
405L364 386Q516 342 516 206Q516 129 470 74T358 -4T224 -16L207 -96H154ZM293 322L239 58Q268 51 310 62T389 109T426 197Q426 217 423 232T412 259T396 278T374 293T350 303T322 312T293 322ZM259 418L307 656Q272 656 240 646T182 606T155 529Q155 454 246
424L259 418Z" />
<glyph unicode="%" glyph-name="percent" horiz-adv-x="926" d="M79 454Q79 512 97 568T160 666T264 709Q410 709 410 564Q410 503 392 447T330 350T223 309Q156 309 118 347T79 454ZM581 137Q581 89 599 66T660 43Q701 43 728 78T766 157T776 248Q776 333 703
333Q645 333 613 268T581 137ZM513 133Q513 191 531 247T594 345T698 388Q844 388 844 243Q844 181 826 126T764 30T657 -11Q590 -11 552 27T513 133ZM209 -27L644 725H708L273 -27H209ZM147 458Q147 410 165 387T226 364Q267 364 294 399T332 478T342 569Q342
654 269 654Q211 654 179 589T147 458Z" />
<glyph unicode="&amp;" glyph-name="ampersand" horiz-adv-x="630" d="M246 551Q246 506 291 434Q316 448 325 453T356 474T388 501T407 529T417 565Q417 598 395 618T338 639Q298 639 272 616T246 551ZM468 0L424 74Q332 -11 220 -11Q134 -11 78 38T21 173Q21
208 33 238T63 290T110 333T162 367T220 398Q201 427 191 445T171 495T161 556Q161 627 211 670T339 714Q406 714 454 679T502 578Q502 543 487 512T443 455T388 412T326 376L438 192Q491 266 501 337H583Q557 220 480 130L565 0H468ZM384 130L257 338Q224 321
204 308T158 274T119 227T106 169Q106 122 142 93T229 63Q274 63 308 79T384 130Z" />
<glyph unicode="&apos;" glyph-name="quotesingle" horiz-adv-x="278" d="M142 456V714H210V456H142Z" />
<glyph unicode="(" glyph-name="parenleft" horiz-adv-x="259" d="M172 -197H116Q80 -119 58 -18T35 170Q35 252 54 328T110 475T190 604T293 731H363Q120 439 120 134Q120 -45 172 -197Z" />
<glyph unicode=")" glyph-name="parenright" horiz-adv-x="259" d="M-46 -197H-116Q126 85 126 398Q126 579 74 731H130Q166 651 188 550T211 362Q211 205 146 78T-46 -197Z" />
<glyph unicode="*" glyph-name="asterisk" horiz-adv-x="352" d="M272 714L247 601L357 612L362 564L255 550L304 450L255 427L208 530L130 443L93 480L170 564L75 612L100 658L196 609L218 714H272Z" />
<glyph unicode="+" glyph-name="plus" horiz-adv-x="600" d="M334 506V287H552V219H334V0H266V219H48V287H266V506H334Z" />
<glyph unicode="," glyph-name="comma" horiz-adv-x="278" d="M15 0L39 111H150Q145 93 138 56T126 -3T110 -53T84 -99T44 -129T-15 -146L-5 -98Q18 -94 33 -80T55 -49T69 -8Q70 -3 71 0H15Z" />
<glyph unicode="-" glyph-name="hyphen" horiz-adv-x="389" d="M26 238L42 318H332L316 238H26Z" />
<glyph unicode="." glyph-name="period" horiz-adv-x="278" d="M15 0L39 111H150L126 0H15Z" />
<glyph unicode="/" glyph-name="slash" horiz-adv-x="333" d="M-17 -16L278 731H351L55 -16H-17Z" />
<glyph unicode="0" glyph-name="zero" horiz-adv-x="556" d="M115 249Q115 63 230 63Q285 63 328 108T393 218T425 334T436 417Q436 423 436 448T437 485T435 519T429 555T417 585T398 612T369 627T328 634Q274 634 231 589T164 479T128 353T115 249ZM25 263Q25
328 43 401T96 545T193 662T335 709Q430 709 478 645T526 441Q526 398 517 344T486 226T430 110T343 24T221 -11Q25 -11 25 263Z" />
<glyph unicode="1" glyph-name="one" horiz-adv-x="556" d="M433 709L282 0H192L307 539Q222 519 124 519L138 587Q207 587 271 619T367 709H433Z" />
<glyph unicode="2" glyph-name="two" horiz-adv-x="556" d="M158 468H68Q80 581 145 645T323 709Q411 709 466 658T522 520Q522 471 503 429T445 352T374 296T286 242T209 197Q116 137 93 75H462L446 0H-5Q0 61 22 109T84 192T161 252T253 309T340 365Q387 402
409 434T432 515Q432 571 400 602T313 634Q244 634 203 587T158 468Z" />
<glyph unicode="3" glyph-name="three" horiz-adv-x="556" d="M214 336L229 404Q425 393 425 536Q425 593 392 613T305 634Q178 634 161 490H71Q84 585 144 647T310 709Q406 709 460 665T515 532Q515 473 478 429T388 370Q480 329 480 223Q480 184 464 144T418
69T338 11T224 -11Q116 -11 58 46T1 219H91Q85 63 226 63Q298 63 344 105T390 219Q390 258 376 282T333 318T279 332T214 336Z" />
<glyph unicode="4" glyph-name="four" horiz-adv-x="556" d="M271 0L307 166H-3L13 250L433 709H505L407 241H501L486 166H392L356 0H271ZM387 562L94 241H322L389 562H387Z" />
<glyph unicode="5" glyph-name="five" horiz-adv-x="556" d="M523 697L508 622H217L161 430L163 428Q214 467 288 467Q381 467 434 407T487 253Q487 128 407 55Q330 -11 220 -11Q122 -11 65 42T7 190H97Q97 63 225 63Q305 63 351 116T397 249Q397 318 361 355T256
392Q217 392 183 374T130 323H54L164 697H523Z" />
<glyph unicode="6" glyph-name="six" horiz-adv-x="556" d="M545 525H455Q454 580 428 607T345 634Q307 634 275 617T223 578T185 517T159 453T138 385H140Q188 456 295 456Q382 456 438 396T495 248Q495 135 426 62T242 -11Q135 -11 82 54T29 227Q29 385 89 518Q129
612 193 660T359 709Q446 709 494 661T545 525ZM405 244Q405 306 371 343T275 381Q202 381 161 331T119 206Q119 141 152 102T250 63Q324 63 364 116T405 244Z" />
<glyph unicode="7" glyph-name="seven" horiz-adv-x="556" d="M576 697L564 626Q447 517 347 343T194 0H97Q204 341 471 622H102L119 697H576Z" />
<glyph unicode="8" glyph-name="eight" horiz-adv-x="556" d="M104 519Q104 608 166 658T320 709Q402 709 460 661T519 533Q519 473 484 430T392 374V372Q442 351 467 307T492 205Q492 109 422 49T255 -11Q155 -11 89 40T22 189Q22 269 67 320T192 386V388Q153
405 129 441T104 519ZM249 63Q317 63 359 101T402 208Q402 266 368 301T271 336Q199 336 156 298T112 190Q112 128 149 96T249 63ZM194 570T194 516T227 437T314 411Q365 411 397 443T429 526Q429 634 316 634Q262 634 228 602Z" />
<glyph unicode="9" glyph-name="nine" horiz-adv-x="556" d="M4 169H94Q94 63 197 63Q236 63 268 79T321 118T361 177T389 241T411 307L409 309Q362 239 253 239Q166 239 110 299T54 447Q54 558 123 633T301 709Q409 709 464 645T519 471Q519 320 460 184Q417
86 358 38T198 -11Q106 -11 54 34T4 169ZM274 314Q347 314 388 364T429 489Q429 557 394 595T292 634Q223 634 184 578T144 451Q144 389 178 352T274 314Z" />
<glyph unicode=":" glyph-name="colon" horiz-adv-x="278" d="M234 517L211 406H99L122 517H234ZM15 0L37 111H150L127 0H15Z" />
<glyph unicode=";" glyph-name="semicolon" horiz-adv-x="278" d="M234 517L210 406H99L123 517H234ZM15 0L39 111H150Q145 93 138 56T126 -3T110 -53T84 -99T44 -129T-15 -146L-5 -98Q18 -94 33 -80T55 -49T69 -8Q70 -3 71 0H15Z" />
<glyph unicode="&lt;" glyph-name="less" horiz-adv-x="600" d="M554 514V446L129 253L554 60V-7L46 222V284L554 514Z" />
<glyph unicode="=" glyph-name="equal" horiz-adv-x="600" d="M48 118V186H552V118H48ZM552 388V320H48V388H552Z" />
<glyph unicode="&gt;" glyph-name="greater" horiz-adv-x="600" d="M46 -7V60L471 253L46 446V514L554 284V222L46 -7Z" />
<glyph unicode="?" glyph-name="question" horiz-adv-x="556" d="M145 0L169 111H280L256 0H145ZM171 488H86Q92 589 159 655T328 722Q411 722 473 679T535 557Q535 500 512 457T455 386T386 335T322 279T283 205L279 183H196Q210 267 246 312Q275 351 350 402Q445
465 445 542Q445 594 414 620T330 647Q261 647 219 602T171 488Z" />
<glyph unicode="@" glyph-name="at" horiz-adv-x="800" d="M618 554L534 270Q523 233 523 219Q523 188 547 188Q593 188 639 263T685 418Q685 532 605 604T414 676Q287 676 199 582T110 355Q110 222 201 130T419 38Q490 38 557 71T667 159H730Q683 76 599 30T417
-16Q259 -16 151 92T42 360Q42 513 151 622T413 731Q554 731 653 644T753 423Q753 361 730 305T671 213T595 155T519 133Q492 133 475 149T455 198H452Q393 131 328 131Q265 131 225 176T185 289Q185 399 252 486T420 573Q501 573 532 491L555 554H618ZM420 505Q354
505 307 436T260 296Q260 254 284 227T346 199Q407 199 454 271T501 412Q501 448 477 476T420 505Z" />
<glyph unicode="A" glyph-name="A" horiz-adv-x="667" d="M-54 0L375 714H479L608 0H510L477 215H176L51 0H-54ZM410 630L219 295H465L412 630H410Z" />
<glyph unicode="B" glyph-name="B" horiz-adv-x="685" d="M231 634L183 407H395Q547 407 547 543Q547 573 535 592T499 620T455 631T407 634H231ZM7 0L156 714H443Q642 714 642 543Q642 481 605 431T506 371V369Q556 354 584 316T613 221Q613 121 541 61T360 0H7ZM167
327L115 80H345Q370 80 393 84T447 100T498 144T518 221Q518 283 479 305T371 327H167Z" />
<glyph unicode="C" glyph-name="C" horiz-adv-x="722" d="M565 241H660Q632 118 553 51T344 -16Q197 -16 118 65T38 296Q38 413 84 511T221 670T430 731Q551 731 626 667T702 484H607Q607 566 559 608T430 651Q335 651 266 597T165 465T133 296Q133 188 186 126T344
63Q516 63 565 241Z" />
<glyph unicode="D" glyph-name="D" horiz-adv-x="704" d="M234 634L117 80H282Q379 80 449 132T551 263T583 431Q583 634 386 634H234ZM7 0L158 714H408Q539 714 608 642T678 441Q678 240 569 120T281 0H7Z" />
<glyph unicode="E" glyph-name="E" horiz-adv-x="611" d="M7 0L158 714H650L634 634H237L189 407H559L543 327H172L120 80H522L504 0H7Z" />
<glyph unicode="F" glyph-name="F" horiz-adv-x="574" d="M7 0L156 714H626L609 634H234L187 407H517L500 327H170L102 0H7Z" />
<glyph unicode="G" glyph-name="G" horiz-adv-x="759" d="M563 0L557 71Q476 -16 344 -16Q197 -16 118 65T38 296Q38 413 84 511T221 670T430 731Q556 731 636 671T717 492H622Q622 570 568 610T430 651Q335 651 266 597T165 465T133 296Q133 188 186 126T344
63Q452 63 513 123T602 296H374L390 376H701L623 0H563Z" />
<glyph unicode="H" glyph-name="H" horiz-adv-x="722" d="M7 0L157 714H253L188 407H562L626 714H721L571 0H476L545 327H171L102 0H7Z" />
<glyph unicode="I" glyph-name="I" horiz-adv-x="259" d="M7 0L157 714H252L102 0H7Z" />
<glyph unicode="J" glyph-name="J" horiz-adv-x="519" d="M525 714L412 176Q391 77 341 31T189 -16Q99 -16 46 23T-8 135Q-8 172 0 234H96Q87 192 86 160Q86 63 191 63Q225 63 250 76T289 116T312 166T327 225L431 714H525Z" />
<glyph unicode="K" glyph-name="K" horiz-adv-x="667" d="M7 0L158 714H253L178 362L180 360L584 714H711L367 420L596 0H491L296 362L153 241L102 0H7Z" />
<glyph unicode="L" glyph-name="L" horiz-adv-x="556" d="M7 0L157 714H252L120 80H497L480 0H7Z" />
<glyph unicode="M" glyph-name="M" horiz-adv-x="870" d="M7 0L157 714H289L384 100H386L739 714H871L720 0H629L775 625H773L409 0H318L225 625H223L98 0H7Z" />
<glyph unicode="N" glyph-name="N" horiz-adv-x="722" d="M7 0L158 714H260L515 123H517L636 714H728L577 0H475L222 587H220L99 0H7Z" />
<glyph unicode="O" glyph-name="O" horiz-adv-x="759" d="M133 296Q133 188 186 126T344 63Q434 63 501 116T601 247T633 415Q633 518 580 584T430 651Q335 651 266 597T165 465T133 296ZM38 296Q38 413 84 511T221 670T430 731Q566 731 647 641T728 415Q728 301
683 204T548 45T344 -16Q197 -16 118 65T38 296Z" />
<glyph unicode="P" glyph-name="P" horiz-adv-x="648" d="M236 634L181 372H396Q472 372 513 411T554 517Q554 579 522 606T437 634H236ZM7 0L156 714H437Q649 714 649 517Q649 480 636 444T593 372T507 314T376 292H164L102 0H7Z" />
<glyph unicode="Q" glyph-name="Q" horiz-adv-x="759" d="M381 146L435 203L514 126Q572 174 602 252T633 415Q633 518 580 584T430 651Q335 651 266 597T165 465T133 296Q133 188 186 126T344 63Q401 63 446 84L381 146ZM663 -17L609 -73L510 22Q436 -16 344
-16Q197 -16 118 65T38 296Q38 413 84 511T221 670T430 731Q566 731 647 641T728 415Q728 311 688 219T576 66L663 -17Z" />
<glyph unicode="R" glyph-name="R" horiz-adv-x="685" d="M7 0L158 714H433Q481 714 521 705T595 676T649 620T668 532Q668 459 623 405T507 340V338Q551 324 568 282T580 183Q579 170 572 125T566 53T581 0H482Q464 55 484 153Q489 201 488 230T474 275T448 298T415
305H377H166L102 0H7ZM236 634L183 385H397Q450 385 487 399T541 437T566 481T573 526Q573 634 433 634H236Z" />
<glyph unicode="S" glyph-name="S" horiz-adv-x="648" d="M614 503H519Q521 583 479 617T355 651Q294 651 242 621T190 534Q190 486 220 461T306 419L402 393Q482 371 528 329T574 200Q574 130 530 79T425 6T296 -16Q160 -16 83 46T15 234H110Q106 142 156 103T300
63Q374 63 426 98T479 200Q479 250 446 275T352 318L255 344Q95 389 95 524Q95 621 173 676T355 731Q409 731 455 718T538 677T595 606T614 503Z" />
<glyph unicode="T" glyph-name="T" horiz-adv-x="574" d="M653 714L635 634H395L261 0H166L300 634H60L77 714H653Z" />
<glyph unicode="U" glyph-name="U" horiz-adv-x="722" d="M728 714L639 286Q616 180 603 149Q569 65 496 25T325 -16Q167 -16 101 63T66 294L155 714H250L156 270Q109 63 325 63Q382 63 420 78T482 126T518 193T543 286L633 714H728Z" />
<glyph unicode="V" glyph-name="V" horiz-adv-x="611" d="M691 714L288 0H181L79 714H176L249 93H251L590 714H691Z" />
<glyph unicode="W" glyph-name="W" horiz-adv-x="926" d="M983 714L655 0H556L511 616H509L227 0H125L80 714H174L199 113H201L475 714H583L623 111H625L885 714H983Z" />
<glyph unicode="X" glyph-name="X" horiz-adv-x="611" d="M-43 0L266 373L94 714H196L328 432L557 714H664L370 360L551 0H453L309 302L65 0H-43Z" />
<glyph unicode="Y" glyph-name="Y" horiz-adv-x="611" d="M193 0L254 287L66 714H167L313 368L584 714H694L348 287L286 0H193Z" />
<glyph unicode="Z" glyph-name="Z" horiz-adv-x="611" d="M-37 0L-20 79L515 634H106L126 714H647L630 633L90 80H546L529 0H-37Z" />
<glyph unicode="[" glyph-name="bracketleft" horiz-adv-x="259" d="M-28 -197L163 731H352L338 666H230L66 -132H174L160 -197H-28Z" />
<glyph unicode="\" glyph-name="backslash" horiz-adv-x="333" d="M55 731L351 -16H278L-17 731H55Z" />
<glyph unicode="]" glyph-name="bracketright" horiz-adv-x="259" d="M253 731L61 -197H-127L-113 -132H-5L158 666H50L64 731H253Z" />
<glyph unicode="^" glyph-name="asciicircum" horiz-adv-x="600" d="M50 264L268 697H332L550 264H480L299 624L121 264H50Z" />
<glyph unicode="_" glyph-name="underscore" horiz-adv-x="500" d="M0 -124V-74H500V-124H0Z" />
<glyph unicode="`" glyph-name="grave" horiz-adv-x="222" d="M177 731L244 588H177L76 731H177Z" />
<glyph unicode="a" glyph-name="a" horiz-adv-x="519" d="M138 361H53Q64 443 127 486T277 529Q466 529 466 397Q466 367 450 303L417 162Q416 155 412 140T406 112T403 88Q403 56 428 56Q436 56 455 63L442 0Q413 -11 390 -11Q355 -11 337 8T323 61L321 63Q266
-11 148 -11Q77 -11 34 23T-9 134Q-9 176 7 206T44 253T104 281T168 295T239 303Q247 304 251 304Q284 307 300 309T335 316T362 330T375 351T381 386Q381 423 350 438T277 454Q224 454 185 431T138 361ZM75 135Q75 101 102 82T168 63Q269 63 313 131Q323 145 330
163T341 193T350 230T358 264H356Q334 248 283 241T189 230T111 203T75 135Z" />
<glyph unicode="b" glyph-name="b" horiz-adv-x="593" d="M-4 0L146 714H231L176 453L178 451Q240 529 336 529Q436 529 487 469T539 306Q539 177 465 83T266 -11Q198 -11 149 21T92 96H90L71 0H-4ZM454 306Q454 371 424 412T336 454Q266 454 216 410T146 309T125
192Q125 132 163 98T266 63Q324 63 368 103T433 198T454 306Z" />
<glyph unicode="c" glyph-name="c" horiz-adv-x="537" d="M501 353H416Q416 401 387 427T307 454Q215 454 161 379T106 211Q106 145 136 104T234 63Q288 63 327 91T385 169H470Q447 81 386 35T234 -11Q129 -11 75 46T21 211Q21 342 98 435T307 529Q397 529 447
486T501 353Z" />
<glyph unicode="d" glyph-name="d" horiz-adv-x="593" d="M606 714L455 0H375L393 74H391Q354 26 315 8T220 -11Q123 -11 70 46T17 200Q17 326 96 427T304 529Q339 529 370 521T428 492T465 438H467L522 714H606ZM102 200Q102 63 235 63Q296 63 344 105T414 205T437
320Q437 380 403 417T307 454Q213 454 158 375T102 200Z" />
<glyph unicode="e" glyph-name="e" horiz-adv-x="537" d="M487 233H98Q95 210 95 188Q95 131 134 97T229 63Q341 63 378 162H463Q443 78 380 34T229 -11Q168 -11 123 8T55 59T21 125T10 196Q10 341 88 435T276 529Q495 529 495 300Q495 273 487 233ZM110 308H410Q414
369 384 411T289 454Q218 454 174 414T110 308Z" />
<glyph unicode="f" glyph-name="f" horiz-adv-x="296" d="M23 0L119 442H31L46 517H134Q137 530 143 555T152 593T163 627T177 659T196 684T222 705T256 717T301 722Q346 722 372 714L358 642Q333 647 318 647Q294 647 278 641T252 618T238 592T227 554T218 517H317L303
442H203L108 0H23Z" />
<glyph unicode="g" glyph-name="g" horiz-adv-x="574" d="M552 517L459 75Q437 -21 419 -65Q358 -209 184 -209Q97 -209 39 -170T-21 -49H63Q69 -134 193 -134Q231 -134 260 -121T307 -92T339 -43T361 11T378 73L376 75Q324 -3 215 -3Q122 -3 72 55T21 210Q21
333 96 431T290 529Q348 529 395 500T454 424V422H456L472 517H552ZM106 210Q106 151 139 111T233 71Q279 71 316 95T375 156T409 236T421 319Q421 382 388 418T289 454Q233 454 190 412T126 316T106 210Z" />
<glyph unicode="h" glyph-name="h" horiz-adv-x="556" d="M-4 0L146 714H231L170 441L172 439Q204 483 252 506T356 529Q429 529 464 497T500 396Q500 362 485 295L422 0H337L403 302Q404 308 407 326T413 359T415 382Q415 417 390 435T325 454Q252 454 197 394Q160
362 140 286L80 0H-4Z" />
<glyph unicode="i" glyph-name="i" horiz-adv-x="222" d="M230 714L208 610H122L144 714H230ZM-4 0L103 517H188L80 0H-4Z" />
<glyph unicode="j" glyph-name="j" horiz-adv-x="222" d="M230 714L208 610H122L144 714H230ZM-119 -191L-104 -116Q-82 -122 -71 -122Q-45 -122 -34 -103T-9 -25L103 517H188L58 -96Q34 -197 -63 -197Q-96 -197 -119 -191Z" />
<glyph unicode="k" glyph-name="k" horiz-adv-x="481" d="M-4 0L146 714H230L141 294L143 292L403 517H514L289 326L417 0H322L221 275L119 184L80 0H-4Z" />
<glyph unicode="l" glyph-name="l" horiz-adv-x="222" d="M-4 0L145 714H230L80 0H-4Z" />
<glyph unicode="m" glyph-name="m" horiz-adv-x="852" d="M-4 0L105 517H184L165 440L167 438Q238 529 347 529T477 436Q507 478 555 503T654 529Q715 529 756 501T798 413Q798 372 783 310L718 0H633L705 328Q713 360 713 384Q713 414 691 434T634 454T564 433T504
383Q473 348 456 267L399 0H314L376 295Q392 366 392 386Q392 454 320 454Q287 454 253 435T193 388Q168 364 158 340T138 271L80 0H-4Z" />
<glyph unicode="n" glyph-name="n" horiz-adv-x="556" d="M-4 0L104 517H186L170 439H172Q204 483 252 506T356 529Q429 529 464 497T500 396Q500 362 485 295L422 0H337L403 302Q404 308 407 326T413 359T415 382Q415 417 390 435T325 454Q252 454 197 394Q160
362 140 286L80 0H-4Z" />
<glyph unicode="o" glyph-name="o" horiz-adv-x="574" d="M17 204Q17 337 96 433T306 529Q411 529 466 475T521 315Q521 181 443 85T235 -11Q135 -11 76 49T17 204ZM102 205Q102 140 139 102T244 63Q302 63 348 104T415 200T436 308Q436 372 402 413T300 454Q238
454 192 414T124 318T102 205Z" />
<glyph unicode="p" glyph-name="p" horiz-adv-x="593" d="M-48 -197L102 517H182L164 443H166Q203 491 243 510T337 529Q434 529 487 471T540 317Q540 236 507 163T407 39T253 -11Q197 -11 151 10T92 79H90L35 -197H-48ZM455 317Q455 454 322 454Q261 454 213
412T143 312T120 197Q120 137 154 100T250 63Q344 63 399 142T455 317Z" />
<glyph unicode="q" glyph-name="q" horiz-adv-x="593" d="M102 212Q102 147 135 105T234 63Q298 63 344 107T411 210T431 327Q431 387 396 420T298 454Q239 454 193 415T124 322T102 212ZM561 517L410 -197H324L380 66H378Q315 -11 215 -11Q117 -11 67 50T17 212Q17
294 48 365T143 482T289 529Q419 529 456 435H458L475 517H561Z" />
<glyph unicode="r" glyph-name="r" horiz-adv-x="333" d="M-4 0L103 517H183L158 406H160Q229 529 348 529H378L358 438Q355 439 345 439H333Q302 439 282 434Q216 417 172 350Q146 313 129 229L80 0H-4Z" />
<glyph unicode="s" glyph-name="s" horiz-adv-x="481" d="M440 365H355Q357 407 327 430T248 454Q138 454 138 388Q138 380 140 373T147 360T158 349T172 338T189 329T209 319T229 311T251 302T274 293Q339 266 375 234T411 148Q411 68 349 29T200 -11Q-8 -11
-8 163H76Q73 110 110 87T208 63Q256 63 291 82T326 142Q326 157 320 168T296 191T269 207T229 224T190 240Q126 265 90 296T53 380Q53 448 110 488T245 529Q326 529 383 489T440 365Z" />
<glyph unicode="t" glyph-name="t" horiz-adv-x="315" d="M253 670L221 517H324L308 442H205L141 138Q141 136 140 124T138 104Q138 69 189 69Q209 69 238 78L223 0Q190 -5 163 -5Q47 -5 47 78Q47 94 52 121L120 442H33L49 517H136L168 670H253Z" />
<glyph unicode="u" glyph-name="u" horiz-adv-x="556" d="M520 517L411 0H329L345 78H343Q279 -11 159 -11Q86 -11 51 21T15 121Q15 155 30 222L93 517H178L112 215Q100 169 100 135Q100 100 125 82T190 63Q258 63 309 112T375 231L435 517H520Z" />
<glyph unicode="v" glyph-name="v" horiz-adv-x="481" d="M494 517L207 0H116L42 517H132L176 87H178L402 517H494Z" />
<glyph unicode="w" glyph-name="w" horiz-adv-x="759" d="M762 517L495 0H405L379 402H377L192 0H102L41 517H131L163 106H165L351 517H447L472 106H474L670 517H762Z" />
<glyph unicode="x" glyph-name="x" horiz-adv-x="481" d="M-65 0L176 274L61 517H159L237 329L391 517H494L272 267L404 0H307L213 212L37 0H-65Z" />
<glyph unicode="y" glyph-name="y" horiz-adv-x="481" d="M505 517L163 -87Q136 -129 119 -150T70 -190T-3 -209Q-36 -209 -62 -196L-47 -127Q-24 -141 1 -141Q47 -141 81 -85L133 0L42 517H133L193 106H195L412 517H505Z" />
<glyph unicode="z" glyph-name="z" d="M-52 0L-40 64L319 442H41L56 517H449L436 456L73 75H382L368 0H-52Z" />
<glyph unicode="{" glyph-name="braceleft" horiz-adv-x="333" d="M395 731L382 671H332Q306 671 290 646T266 583L229 402Q215 341 179 308T114 268L113 265Q135 262 156 239T178 169Q178 161 172 131L135 -49Q132 -66 132 -83Q132 -137 165 -137H215L202 -197H132Q99
-197 73 -173T47 -107Q47 -86 51 -66L89 115Q93 135 93 156Q93 190 75 211T30 232L45 300Q78 300 109 333T152 418L190 600Q201 660 242 695T325 731H395Z" />
<glyph unicode="|" glyph-name="bar" horiz-adv-x="222" d="M77 -213V786H145V-213H77Z" />
<glyph unicode="}" glyph-name="braceright" horiz-adv-x="333" d="M-90 -197L-77 -137H-27Q-2 -137 14 -112T38 -49L75 131Q84 173 108 205T153 249T190 265L191 268Q169 271 148 294T126 364Q126 372 132 402L169 583Q172 600 172 617Q172 671 139 671H89L102
731H172Q205 731 231 707T257 641Q257 620 253 600L215 418Q211 398 211 377Q211 342 229 321T274 300L259 232Q226 232 195 199T152 115L114 -66Q103 -125 62 -161T-20 -197H-90Z" />
<glyph unicode="~" glyph-name="asciitilde" horiz-adv-x="600" d="M495 319L531 269Q504 228 476 206T406 183Q361 183 304 216Q238 255 189 255Q141 255 105 179L69 229Q111 315 194 315Q232 315 305 283Q315 279 339 267T379 249T407 243Q414 243 421 245T434
249T446 258T457 267T467 279T476 292T486 306T495 319Z" />
</font>
</defs>
</svg>
