<?xml version="1.0" standalone="no"?> <!DOCTYPE svg PUBLIC "-//W3C//DTD SVG 1.0//EN" "http://www.w3.org/TR/2001/REC-SVG-20010904/DTD/svg10.dtd" > <svg xmlns="http://www.w3.org/2000/svg" width="100%" height="100%">
<defs >
<font id="Roboto-Medium" horiz-adv-x="1182" ><font-face
    font-family="Roboto"
    units-per-em="2048"
    panose-1="0 0 0 0 0 0 0 0 0 0"
    ascent="1900"
    descent="-500"
    alphabetic="0" />
<missing-glyph horiz-adv-x="510" />
<glyph unicode=" " glyph-name="space" horiz-adv-x="510" />
<glyph unicode="!" glyph-name="exclam" horiz-adv-x="549" d="M397 491H154V1456H397V491ZM397 0H154V234H397V0Z" />
<glyph unicode="&quot;" glyph-name="quotedbl" horiz-adv-x="781" d="M347 1181L245 932H133V1456H347V1181ZM672 1181L570 932H458V1456H672V1181Z" />
<glyph unicode="#" glyph-name="numbersign" horiz-adv-x="1250" d="M683 410H458L382 0H215L291 410H60V568H321L379 881H136V1040H409L487 1456H654L576 1040H800L878 1456H1046L968 1040H1176V881H938L880 568H1101V410H850L774 0H607L683 410ZM488 568H713L771
881H546L488 568Z" />
<glyph unicode="$" glyph-name="dollar" horiz-adv-x="1205" d="M841 380Q841 465 786 520T596 623Q384 691 278 793T172 1073Q172 1240 273 1346T550 1473V1691H709V1471Q883 1448 979 1333T1073 1030L1070 1025H835Q835 1141 779 1208T622 1276Q516 1276 465
1222T414 1075Q414 989 467 937T663 832Q875 763 979 661T1084 382Q1084 209 979 106T689 -16V-211H530V-17Q350 1 234 110T121 431L123 436H358Q358 297 428 238T605 179Q719 179 780 233T841 380Z" />
<glyph unicode="%" glyph-name="percent" horiz-adv-x="1504" d="M100 1176Q100 1304 182 1390T408 1477Q552 1477 634 1391T717 1176V1099Q717 971 635 886T410 800Q266 800 183 885T100 1099V1176ZM269 1099Q269 1035 305 991T410 946Q476 946 511 990T547 1099V1176Q547
1241 511 1286T408 1331Q341 1331 305 1286T269 1176V1099ZM800 357Q800 484 883 570T1108 657Q1252 657 1334 571T1417 357V279Q1417 150 1335 65T1110 -21Q966 -21 883 65T800 279V357ZM969 279Q969 215 1006 170T1110 125Q1180 125 1214 168T1248 279V357Q1248
421 1212 466T1108 511Q1041 511 1005 466T969 357V279ZM460 109L335 181L1046 1319L1171 1247L460 109Z" />
<glyph unicode="&amp;" glyph-name="ampersand" horiz-adv-x="1309" d="M62 393Q62 513 129 601T332 783Q259 877 224 953T189 1109Q189 1285 291 1381T570 1477Q729 1477 828 1382T928 1151Q928 1050 880 976T738 831L634 756L936 397Q976 460 998 535T1021 694H1225Q1225
556 1188 440T1075 233L1267 5L1265 0H991L910 95Q828 38 735 9T537 -21Q320 -21 191 94T62 393ZM544 173Q606 173 667 191T783 244L458 628L432 609Q356 553 331 501T305 401Q305 301 368 237T544 173ZM417 1112Q417 1064 440 1014T512 903L621 976Q678 1013 697
1053T717 1143Q717 1197 676 1239T566 1282Q496 1282 457 1233T417 1112Z" />
<glyph unicode="&apos;" glyph-name="quotesingle" horiz-adv-x="444" d="M338 1207L236 924H109V1456H338V1207Z" />
<glyph unicode="(" glyph-name="parenleft" horiz-adv-x="695" d="M128 592Q128 986 284 1262T623 1624L629 1623L674 1489Q540 1387 445 1162T349 594V574Q349 231 444 6T674 -328L629 -456H623Q440 -370 284 -94T128 576V592Z" />
<glyph unicode=")" glyph-name="parenright" horiz-adv-x="700" d="M571 576Q571 187 412 -92T69 -456H63L17 -328Q150 -226 246 2T342 574V594Q342 934 244 1162T17 1495L63 1624H69Q251 1540 411 1260T571 592V576Z" />
<glyph unicode="*" glyph-name="asterisk" horiz-adv-x="872" d="M302 678L70 751L121 915L359 832L354 1081H523L521 824L752 907L803 740L565 667L711 467L573 365L429 576L289 373L150 472L302 678Z" />
<glyph unicode="+" glyph-name="plus" horiz-adv-x="1141" d="M686 801H1066V579H686V146H450V579H68V801H450V1206H686V801Z" />
<glyph unicode="," glyph-name="comma" horiz-adv-x="462" d="M363 31L208 -281H54L124 40V238H363V31Z" />
<glyph unicode="-" glyph-name="hyphen" horiz-adv-x="910" d="M748 521H158V717H748V521Z" />
<glyph unicode="." glyph-name="period" horiz-adv-x="572" d="M395 0H153V233H395V0Z" />
<glyph unicode="/" glyph-name="slash" horiz-adv-x="839" d="M225 -125H2L575 1456H798L225 -125Z" />
<glyph unicode="0" glyph-name="zero" horiz-adv-x="1164" d="M1059 521Q1059 269 930 124T583 -21Q366 -21 235 124T104 521V934Q104 1185 234 1331T581 1477Q798 1477 928 1331T1059 934V521ZM816 971Q816 1117 754 1199T581 1282Q469 1282 408 1200T347 971V486Q347
338 409 256T583 173Q695 173 755 255T816 486V971Z" />
<glyph unicode="1" glyph-name="one" horiz-adv-x="1164" d="M751 0H508V1232H199V1425L751 1477V0Z" />
<glyph unicode="2" glyph-name="two" horiz-adv-x="1164" d="M1073 0H134V167L589 693Q700 824 743 909T786 1072Q786 1165 734 1223T585 1282Q472 1282 412 1209T352 1025H117L115 1031Q110 1218 238 1347T585 1477Q794 1477 911 1365T1029 1071Q1029 948 964
840T748 551L441 199L443 194H1073V0Z" />
<glyph unicode="3" glyph-name="three" horiz-adv-x="1164" d="M580 844Q698 844 750 903T802 1068Q802 1163 746 1222T584 1282Q486 1282 421 1224T356 1077H123L121 1083Q115 1250 248 1363T584 1477Q797 1477 920 1373T1044 1068Q1044 968 990 885T838 754Q949
710 1008 622T1067 408Q1067 207 932 93T584 -21Q392 -21 247 87T107 384L109 390H343Q343 298 410 236T584 173Q694 173 759 238T824 407Q824 531 764 592T580 653H418V844H580Z" />
<glyph unicode="4" glyph-name="four" horiz-adv-x="1164" d="M922 519H1106V323H922V0H680V323H71L65 472L673 1456H922V519ZM302 519H680V1113L674 1114L651 1058L302 519Z" />
<glyph unicode="5" glyph-name="five" horiz-adv-x="1164" d="M158 644L242 1456H1010V1246H444L400 875Q443 906 502 927T634 949Q837 951 950 822T1063 465Q1063 249 944 114T588 -21Q396 -21 264 82T136 378L138 383L366 390Q366 288 427 231T588 173Q702 173
761 250T820 463Q820 594 759 673T585 753Q485 753 437 721T366 627L158 644Z" />
<glyph unicode="6" glyph-name="six" horiz-adv-x="1164" d="M654 1477Q739 1477 818 1461T960 1417L913 1229Q852 1253 793 1266T655 1280Q522 1280 441 1173T359 890V814Q418 873 499 906T679 939Q866 939 973 810T1081 472Q1081 251 952 115T611 -21Q396 -21
257 134T117 558V875Q117 1143 270 1310T654 1477ZM600 750Q513 750 453 719T359 632V545Q359 371 430 272T611 173Q718 173 778 257T839 472Q839 600 776 675T600 750Z" />
<glyph unicode="7" glyph-name="seven" horiz-adv-x="1164" d="M1078 1261Q815 951 723 712T630 171V0H387V171Q387 486 503 741T842 1261H85V1456H1078V1261Z" />
<glyph unicode="8" glyph-name="eight" horiz-adv-x="1164" d="M1032 1080Q1032 970 973 886T813 755Q933 708 1004 616T1076 404Q1076 201 941 90T596 -21Q374 -21 234 90T93 404Q93 524 166 616T366 755Q260 801 199 885T138 1080Q138 1273 264 1375T594 1477Q787
1477 909 1375T1032 1080ZM834 413Q834 520 765 588T594 657Q482 657 409 589T336 413Q336 304 408 239T596 173Q698 173 766 238T834 413ZM789 1071Q789 1165 734 1223T594 1282Q498 1282 440 1226T381 1071Q381 973 441 913T596 852Q680 852 734 912T789 1071Z"
/>
<glyph unicode="9" glyph-name="nine" horiz-adv-x="1164" d="M515 173Q641 173 719 262T798 512V617Q750 550 681 516T531 482Q324 482 207 613T89 974Q89 1193 220 1335T551 1477Q770 1477 905 1334T1041 934V521Q1041 268 894 124T515 -21Q438 -21 358 -5T207
42L246 227Q311 198 373 186T515 173ZM554 671Q641 671 703 707T798 803V976Q798 1123 734 1202T555 1282Q458 1282 395 1195T331 974Q331 837 388 754T554 671Z" />
<glyph unicode=":" glyph-name="colon" horiz-adv-x="549" d="M395 0H153V233H395V0ZM395 876H153V1109H395V876Z" />
<glyph unicode=";" glyph-name="semicolon" horiz-adv-x="544" d="M396 876H154V1109H396V876ZM414 31L259 -281H105L175 40V238H414V31Z" />
<glyph unicode="&lt;" glyph-name="less" horiz-adv-x="1041" d="M322 559L303 556V550L322 547L900 329V86L63 458V651L900 1023V781L322 559Z" />
<glyph unicode="=" glyph-name="equal" horiz-adv-x="1166" d="M1007 790H145V992H1007V790ZM1007 366H145V567H1007V366Z" />
<glyph unicode="&gt;" glyph-name="greater" horiz-adv-x="1066" d="M128 770V1009L992 637V444L128 72V311L733 537L751 539L752 545L733 549L128 770Z" />
<glyph unicode="?" glyph-name="question" horiz-adv-x="996" d="M340 412Q341 555 373 616T515 771Q593 847 639 916T685 1070Q685 1167 633 1220T483 1274Q400 1274 342 1229T284 1094H50L47 1100Q44 1278 166 1377T483 1477Q693 1477 810 1370T928 1073Q928
946 855 838T669 639Q612 589 598 544T583 412H340ZM587 0H339V233H587V0Z" />
<glyph unicode="@" glyph-name="at" horiz-adv-x="1825" d="M1731 507Q1722 291 1607 135T1263 -21Q1188 -21 1134 21T1055 140Q1008 60 939 21T778 -19Q645 -19 574 100T520 416Q544 672 660 827T943 982Q1053 982 1120 956T1268 876L1265 872H1270L1219 293Q1211
192 1237 154T1306 116Q1425 116 1496 226T1576 507Q1592 874 1436 1079T952 1284Q646 1284 463 1063T264 478Q246 113 411 -97T887 -307Q974 -307 1064 -287T1218 -234L1256 -364Q1189 -406 1086 -429T883 -453Q496 -453 285 -204T91 478Q109 902 343 1163T956
1424Q1339 1424 1543 1178T1731 507ZM721 416Q711 283 741 214T840 145Q899 145 949 169T1038 257Q1038 265 1038 273T1040 293L1085 808Q1062 817 1036 822T982 828Q864 828 802 726T721 416Z" />
<glyph unicode="A" glyph-name="A" horiz-adv-x="1300" d="M911 340H395L283 0H32L540 1456H771L1273 0H1022L911 340ZM462 543H845L658 1117H652L462 543Z" />
<glyph unicode="B" glyph-name="B" horiz-adv-x="1304" d="M153 0V1456H630Q871 1456 1007 1357T1143 1059Q1143 963 1089 886T937 769Q1077 746 1152 648T1228 418Q1228 213 1094 107T724 0H153ZM396 662V194H724Q850 194 918 251T986 418Q986 528 919 593T731
662H718H396ZM396 843H656Q769 843 834 896T900 1048Q900 1156 831 1208T630 1261H396V843Z" />
<glyph unicode="C" glyph-name="C" horiz-adv-x="1300" d="M1217 476L1219 470Q1223 250 1076 115T679 -21Q425 -21 267 150T109 589V866Q109 1132 265 1304T672 1477Q929 1477 1076 1346T1220 987L1218 981H983Q983 1127 904 1204T672 1282Q524 1282 438 1165T351
868V589Q351 408 439 291T679 173Q828 173 905 251T983 476H1217Z" />
<glyph unicode="D" glyph-name="D" horiz-adv-x="1372" d="M153 0V1456H634Q911 1456 1084 1283T1258 838V617Q1258 344 1085 172T634 0H153ZM396 1261V194H634Q809 194 912 312T1015 617V840Q1015 1024 912 1142T634 1261H396Z" />
<glyph unicode="E" glyph-name="E" horiz-adv-x="1134" d="M966 655H396V194H1068V0H153V1456H1061V1261H396V850H966V655Z" />
<glyph unicode="F" glyph-name="F" horiz-adv-x="1134" d="M983 621H396V0H153V1456H1085V1261H396V816H983V621Z" />
<glyph unicode="G" glyph-name="G" horiz-adv-x="1376" d="M1232 197Q1172 112 1041 46T701 -21Q443 -21 277 145T110 576V880Q110 1144 271 1310T685 1477Q939 1477 1081 1349T1219 1015L1216 1009H985Q985 1132 909 1207T689 1282Q538 1282 446 1169T353 882V576Q353
400 449 287T701 173Q818 173 886 199T989 264V565H684V747H1232V197Z" />
<glyph unicode="H" glyph-name="H" horiz-adv-x="1443" d="M1290 0H1047V621H396V0H153V1456H396V816H1047V1456H1290V0Z" />
<glyph unicode="I" glyph-name="I" horiz-adv-x="589" d="M416 0H173V1456H416V0Z" />
<glyph unicode="J" glyph-name="J" horiz-adv-x="1130" d="M737 1456H979V437Q979 227 852 103T521 -21Q306 -21 180 89T59 410L61 416H296Q296 292 355 233T521 173Q616 173 676 245T737 437V1456Z" />
<glyph unicode="K" glyph-name="K" horiz-adv-x="1304" d="M515 630H396V0H153V1456H396V839H491L964 1456H1249L1252 1451L706 767L1297 0H990L515 630Z" />
<glyph unicode="L" glyph-name="L" horiz-adv-x="1131" d="M396 194H1078V0H153V1456H396V194Z" />
<glyph unicode="M" glyph-name="M" horiz-adv-x="1781" d="M890 336H896L1317 1456H1627V0H1384V1046L1378 1047L977 0H810L402 1067L396 1065V0H153V1456H472L890 336Z" />
<glyph unicode="N" glyph-name="N" horiz-adv-x="1443" d="M1290 0H1047L402 1049L396 1047V0H153V1456H396L1041 407L1047 409V1456H1290V0Z" />
<glyph unicode="O" glyph-name="O" horiz-adv-x="1402" d="M1297 597Q1297 330 1130 155T694 -21Q433 -21 269 154T105 597V859Q105 1125 268 1301T694 1477Q961 1477 1129 1301T1297 859V597ZM1054 861Q1054 1043 957 1160T694 1277Q533 1277 441 1160T348 861V597Q348
413 441 296T694 178Q861 178 957 295T1054 597V861Z" />
<glyph unicode="P" glyph-name="P" horiz-adv-x="1304" d="M396 552V0H153V1456H711Q952 1456 1088 1332T1225 1004Q1225 799 1089 676T711 552H396ZM396 747H711Q846 747 914 819T982 1002Q982 1113 914 1187T711 1261H396V747Z" />
<glyph unicode="Q" glyph-name="Q" horiz-adv-x="1434" d="M1297 597Q1297 485 1266 386T1175 208L1390 -6L1228 -151L1012 62Q943 21 863 0T694 -21Q433 -21 269 154T105 597V859Q105 1125 268 1301T694 1477Q961 1477 1129 1301T1297 859V597ZM1054 861Q1054
1043 957 1160T694 1277Q533 1277 441 1160T348 861V597Q348 413 441 296T694 178Q861 178 957 295T1054 597V861Z" />
<glyph unicode="R" glyph-name="R" horiz-adv-x="1303" d="M396 604V0H153V1456H654Q897 1456 1030 1346T1163 1032Q1163 919 1105 838T934 707Q1057 668 1111 580T1166 362V241Q1166 177 1182 116T1235 23V0H985Q945 33 934 103T923 243V360Q923 472 859 538T683
604H396ZM396 799H641Q787 799 854 855T921 1026Q921 1136 855 1198T654 1261H396V799Z" />
<glyph unicode="S" glyph-name="S" horiz-adv-x="1259" d="M920 374Q920 465 856 523T627 627Q392 692 265 797T137 1073Q137 1249 277 1363T637 1477Q873 1477 1014 1351T1151 1038L1149 1032H915Q915 1147 839 1215T635 1283Q512 1283 446 1225T379 1075Q379
991 452 937T694 833Q923 769 1043 659T1163 376Q1163 195 1021 87T648 -21Q426 -21 261 97T101 430L103 436H337Q337 305 427 239T648 172Q777 172 848 226T920 374Z" />
<glyph unicode="T" glyph-name="T" horiz-adv-x="1202" d="M1170 1261H720V0H477V1261H34V1456H1170V1261Z" />
<glyph unicode="U" glyph-name="U" horiz-adv-x="1396" d="M1265 1456V497Q1265 254 1106 117T694 -21Q446 -21 290 116T134 497V1456H377V497Q377 342 464 258T694 173Q842 173 932 257T1022 497V1456H1265Z" />
<glyph unicode="V" glyph-name="V" horiz-adv-x="1300" d="M621 395L647 289H653L678 393L1026 1456H1285L765 0H534L15 1456H274L621 395Z" />
<glyph unicode="W" glyph-name="W" horiz-adv-x="1781" d="M1276 406H1282L1496 1456H1752L1406 0H1185L894 1036H888L596 0H374L29 1456H284L500 407H506L783 1456H997L1276 406Z" />
<glyph unicode="X" glyph-name="X" horiz-adv-x="1300" d="M650 918L957 1456H1245L797 734L1262 0H970L654 547L338 0H50L508 734L60 1456H346L650 918Z" />
<glyph unicode="Y" glyph-name="Y" horiz-adv-x="1300" d="M648 748L999 1456H1270L765 509V0H523V524L26 1456H297L648 748Z" />
<glyph unicode="Z" glyph-name="Z" horiz-adv-x="1196" d="M374 194H1113V0H88V152L799 1261H94V1456H1087V1310L374 194Z" />
<glyph unicode="[" glyph-name="bracketleft" horiz-adv-x="561" d="M540 1488H375V-135H540V-324H132V1678H540V1488Z" />
<glyph unicode="\" glyph-name="backslash" horiz-adv-x="855" d="M21 1456H257L865 -125H629L21 1456Z" />
<glyph unicode="]" glyph-name="bracketright" horiz-adv-x="561" d="M12 1678H422V-324H12V-135H179V1488H12V1678Z" />
<glyph unicode="^" glyph-name="asciicircum" horiz-adv-x="875" d="M259 729H53L352 1456H523L821 729H616L451 1142L439 1196H433L421 1142L259 729Z" />
<glyph unicode="_" glyph-name="underscore" horiz-adv-x="924" d="M920 -191H3V0H920V-191Z" />
<glyph unicode="`" glyph-name="grave" horiz-adv-x="660" d="M531 1252H329L69 1512L71 1518H347L531 1252Z" />
<glyph unicode="a" glyph-name="a" horiz-adv-x="1114" d="M780 0Q767 41 759 80T747 158Q698 82 616 31T433 -21Q264 -21 174 66T83 305Q83 462 207 549T556 637H745V732Q745 817 696 865T552 913Q469 913 420 874T371 771L137 770L136 776Q129 904 250 1003T567
1102Q756 1102 872 1006T988 730V249Q988 182 997 121T1026 0H780ZM483 174Q574 174 647 220T745 325V485H552Q446 485 386 433T326 309Q326 247 366 211T483 174Z" />
<glyph unicode="b" glyph-name="b" horiz-adv-x="1160" d="M1078 505Q1078 268 968 124T656 -21Q554 -21 479 21T354 143L325 0H128V1560H371V959Q421 1028 491 1065T654 1102Q857 1102 967 944T1078 526V505ZM835 526Q835 695 777 799T593 903Q512 903 458 867T371
767V313Q402 248 457 213T595 177Q721 177 778 265T835 505V526Z" />
<glyph unicode="c" glyph-name="c" horiz-adv-x="1065" d="M569 173Q652 173 709 225T767 357H987L989 351Q993 199 869 89T569 -21Q335 -21 208 133T81 523V558Q81 792 208 947T568 1102Q757 1102 875 989T989 700L987 694H767Q767 783 712 845T568 907Q438 907
381 807T324 558V523Q324 372 380 273T569 173Z" />
<glyph unicode="d" glyph-name="d" horiz-adv-x="1160" d="M83 526Q83 785 194 943T506 1102Q594 1102 663 1067T784 965V1560H1027V0H830L801 137Q749 60 675 20T504 -21Q305 -21 194 124T83 505V526ZM326 505Q326 355 383 266T566 177Q643 177 696 210T784 304V776Q750
836 696 869T568 903Q444 903 385 799T326 526V505Z" />
<glyph unicode="e" glyph-name="e" horiz-adv-x="1072" d="M587 -21Q350 -21 217 128T83 516V556Q83 794 216 948T561 1102Q779 1102 891 968T1003 608V477H334L332 472Q336 339 402 256T601 173Q700 173 772 197T907 266L986 107Q924 53 822 16T587 -21ZM561
907Q466 907 409 839T338 660L340 655H763V674Q763 778 715 842T561 907Z" />
<glyph unicode="f" glyph-name="f" horiz-adv-x="693" d="M207 0V902H42V1082H207V1208Q207 1387 304 1484T578 1581Q613 1581 649 1576T730 1560L705 1372Q685 1376 661 1379T608 1382Q529 1382 490 1337T450 1208V1082H651V902H450V0H207Z" />
<glyph unicode="g" glyph-name="g" horiz-adv-x="1160" d="M90 526Q90 785 201 943T513 1102Q610 1102 683 1061T808 941L832 1082H1034V0Q1034 -209 905 -323T539 -437Q460 -437 369 -415T203 -355L242 -164Q304 -195 380 -212T537 -230Q669 -230 730 -174T791
0V111Q740 46 671 13T511 -21Q312 -21 201 124T90 505V526ZM332 505Q332 355 390 266T573 177Q651 177 704 209T791 303V777Q757 836 704 869T575 903Q450 903 391 799T332 526V505Z" />
<glyph unicode="h" glyph-name="h" horiz-adv-x="1160" d="M368 942Q422 1018 499 1060T671 1102Q843 1102 939 994T1036 659V0H793V661Q793 788 744 845T596 903Q518 903 461 876T368 799V0H125V1560H368V942Z" />
<glyph unicode="i" glyph-name="i" horiz-adv-x="531" d="M387 0H144V1082H387V0ZM387 1347H144V1560H387V1347Z" />
<glyph unicode="j" glyph-name="j" horiz-adv-x="537" d="M398 1082V-63Q398 -242 305 -339T46 -437Q10 -437 -19 -433T-80 -420L-66 -226Q-49 -231 -24 -234T22 -238Q84 -238 119 -196T155 -63V1082H398ZM392 1350H149V1560H392V1350Z" />
<glyph unicode="k" glyph-name="k" horiz-adv-x="1072" d="M461 473H371V0H129V1560H371V668H454L747 1082H1032L661 584L1073 0H790L461 473Z" />
<glyph unicode="l" glyph-name="l" horiz-adv-x="531" d="M387 0H144V1560H387V0Z" />
<glyph unicode="m" glyph-name="m" horiz-adv-x="1781" d="M350 1082L363 941Q416 1018 496 1060T681 1102Q787 1102 863 1054T977 910Q1027 1000 1109 1051T1301 1102Q1464 1102 1558 989T1653 645V0H1410V646Q1410 788 1363 845T1220 903Q1142 903 1088 861T1010
748Q1010 733 1011 722T1012 701V0H769V646Q769 783 721 843T578 903Q504 903 453 875T371 794V0H128V1082H350Z" />
<glyph unicode="n" glyph-name="n" horiz-adv-x="1160" d="M348 1082L362 926Q415 1009 495 1055T677 1102Q846 1102 940 998T1035 673V0H792V671Q792 797 743 850T595 903Q517 903 460 874T369 792V0H126V1082H348Z" />
<glyph unicode="o" glyph-name="o" horiz-adv-x="1160" d="M83 551Q83 793 215 947T578 1102Q811 1102 943 948T1076 551V530Q1076 286 944 133T580 -21Q348 -21 216 133T83 530V551ZM326 530Q326 371 388 272T580 173Q707 173 770 272T834 530V551Q834 706 771
806T578 907Q451 907 389 807T326 551V530Z" />
<glyph unicode="p" glyph-name="p" horiz-adv-x="1160" d="M1076 505Q1076 269 965 124T656 -21Q564 -21 493 12T371 109V-416H128V1082H333L357 946Q409 1022 482 1062T653 1102Q853 1102 964 944T1076 526V505ZM834 526Q834 692 772 797T585 903Q509 903 456
871T371 780V291Q403 234 456 204T587 173Q711 173 772 264T834 505V526Z" />
<glyph unicode="q" glyph-name="q" horiz-adv-x="1160" d="M83 526Q83 785 194 943T506 1102Q600 1102 672 1063T795 951L823 1082H1020V-416H777V102Q727 41 659 10T504 -21Q305 -21 194 124T83 505V526ZM326 505Q326 355 383 264T566 173Q640 173 691 202T777
288V792Q743 846 691 876T568 907Q444 907 385 801T326 526V505Z" />
<glyph unicode="r" glyph-name="r" horiz-adv-x="719" d="M667 863L563 867Q492 867 445 837T371 752V0H128V1082H350L366 925Q407 1008 471 1055T620 1102Q642 1102 661 1099T696 1090L667 863Z" />
<glyph unicode="s" glyph-name="s" horiz-adv-x="1065" d="M736 296Q736 352 689 388T509 454Q318 493 217 569T116 773Q116 909 231 1005T534 1102Q728 1102 846 1003T960 763L958 757H725Q725 823 673 871T534 920Q446 920 400 880T354 782Q354 727 397 694T574
635Q773 595 874 518T975 310Q975 164 855 72T537 -21Q326 -21 204 87T88 335L90 341H316Q320 247 384 204T540 161Q633 161 684 198T736 296Z" />
<glyph unicode="t" glyph-name="t" horiz-adv-x="701" d="M439 1345V1082H633V902H439V304Q439 237 468 209T545 180Q565 180 584 183T620 193L646 15Q615 -2 573 -11T484 -21Q350 -21 274 57T197 304V902H32V1082H197V1345H439Z" />
<glyph unicode="u" glyph-name="u" horiz-adv-x="1160" d="M803 160Q753 73 675 26T493 -21Q319 -21 221 93T123 449V1082H365V447Q365 292 410 235T550 177Q638 177 697 208T791 300V1082H1034V0H825L803 160Z" />
<glyph unicode="v" glyph-name="v" horiz-adv-x="1038" d="M504 366L522 278H528L547 366L762 1082H1013L629 0H418L32 1082H283L504 366Z" />
<glyph unicode="w" glyph-name="w" horiz-adv-x="1530" d="M1081 321H1087L1245 1082H1488L1192 0H993L764 716H758L532 0H333L37 1082H280L442 331H448L674 1082H851L1081 321Z" />
<glyph unicode="x" glyph-name="x" horiz-adv-x="1038" d="M516 711L716 1082H995L655 547L1005 0H729L520 380L311 0H33L383 547L43 1082H319L516 711Z" />
<glyph unicode="y" glyph-name="y" horiz-adv-x="1038" d="M487 434L511 326H517L754 1082H1020L572 -164Q529 -277 451 -357T230 -437Q200 -437 166 -431T99 -417L126 -229Q139 -230 163 -232T199 -234Q265 -234 304 -189T369 -85L409 13L16 1082H281L487 434Z" />
<glyph unicode="z" glyph-name="z" horiz-adv-x="1038" d="M386 194H964V0H85V159L631 886H96V1082H938V928L386 194Z" />
<glyph unicode="{" glyph-name="braceleft" horiz-adv-x="687" d="M609 -360Q414 -305 332 -185T249 106V309Q249 413 202 471T56 529V707Q154 707 201 765T249 929V1132Q249 1303 331 1422T609 1597L657 1457Q559 1424 519 1340T478 1132V929Q478 825 435 745T305
619Q392 572 435 492T478 309V106Q478 -18 518 -102T657 -219L609 -360Z" />
<glyph unicode="|" glyph-name="bar" horiz-adv-x="514" d="M358 -270H144V1456H358V-270Z" />
<glyph unicode="}" glyph-name="braceright" horiz-adv-x="687" d="M27 -219Q124 -186 165 -102T207 106V309Q207 414 251 494T389 618Q296 661 252 741T207 929V1132Q207 1256 166 1340T27 1457L75 1597Q269 1542 352 1423T435 1132V929Q435 823 482 765T629
707V529Q529 529 482 471T435 309V106Q435 -65 352 -185T75 -360L27 -219Z" />
<glyph unicode="~" glyph-name="asciitilde" horiz-adv-x="1361" d="M1244 750Q1244 599 1156 493T935 387Q848 387 776 419T620 523Q565 569 521 591T431 613Q371 613 329 562T287 438L117 460Q117 610 203 712T424 815Q510 815 585 782T741 680Q795 632 838
611T928 590Q987 590 1030 644T1073 773L1244 750Z" />
</font>
</defs>
</svg>
